<?xml version="1.0" standalone="no"?>
<!DOCTYPE svg PUBLIC "-//W3C//DTD SVG 1.1//EN" "http://www.w3.org/Graphics/SVG/1.1/DTD/svg11.dtd" >
<svg xmlns="http://www.w3.org/2000/svg" xmlns:xlink="http://www.w3.org/1999/xlink" version="1.1">
<metadata>
Created by FontForge 20170731 at Sat Dec 17 15:19:11 2022
 By Aleksey,,,
Copyright (c) 2019 by Sarwo Edi. All rights reserved.
</metadata>
<defs>
<font id="VistolSans-Regular" horiz-adv-x="1097" >
  <font-face 
    font-family="Vistol Sans Regular"
    font-weight="400"
    font-stretch="normal"
    units-per-em="2048"
    panose-1="0 0 0 0 0 0 0 0 0 0"
    ascent="1475"
    descent="-573"
    x-height="1004"
    cap-height="1317"
    bbox="-131 -455 2615 1802"
    underline-thickness="102"
    underline-position="-358"
    unicode-range="U+000A-FB05"
  />
<missing-glyph horiz-adv-x="708" 
 />
    <glyph glyph-name="f_f" unicode="ff" horiz-adv-x="1261" 
d="M205 866h-131v138h131v129q0 307 280 313q123 0 213 -62l-45 -112q-60 37 -131 37q-84 0 -116.5 -49t-32.5 -138v-118h418v129q0 307 280 313q123 0 213 -62l-45 -112q-60 37 -131 37q-84 0 -117 -49t-33 -138v-118h228v-138h-228v-866h-167v866h-418v-866h-168v866z" />
    <glyph glyph-name="fi" unicode="fi" horiz-adv-x="1116" 
d="M74 1004h131v129q0 307 280 313q123 0 213 -62l-45 -112q-60 37 -131 37q-84 0 -116.5 -49t-32.5 -138v-118h600v-1004h-170v866h-430v-866h-168v866h-131v138zM778 1260q0 43 32.5 73.5t76.5 30.5q45 0 76.5 -30.5t31.5 -73.5t-31.5 -74t-76.5 -31q-44 0 -76.5 31
t-32.5 74z" />
    <glyph glyph-name="fl" unicode="fl" horiz-adv-x="1107" 
d="M205 866h-131v138h131v129q0 307 280 313q66 0 122.5 -18.5t90.5 -43.5l-45 -112q-60 37 -131 37q-84 0 -116.5 -49t-32.5 -138v-118h426v405h170v-1409h-170v866h-426v-866h-168v866z" />
    <glyph glyph-name="f_f_i" unicode="ffi" horiz-adv-x="1701" 
d="M1108 1307q-86 0 -118 -47.5t-32 -139.5v-119h601v-1001h-170v866h-431v-866h-167v866h-418v-866h-168v866h-131v135h131v132q0 167 82 241q70 70 207 70q63 0 117 -18t87 -42l-45 -114q-55 37 -131 37q-86 0 -117.5 -47.5t-31.5 -139.5v-119h418v132q0 311 288 311
q63 0 117.5 -18t87.5 -42l-45 -114q-55 37 -131 37zM1473 1155q-44 0 -76.5 31t-32.5 74t32.5 73.5t76.5 30.5q45 0 76.5 -30.5t31.5 -73.5t-31.5 -74t-76.5 -31z" />
    <glyph glyph-name="f_f_l" unicode="ffl" horiz-adv-x="1730" 
d="M991 1120v-119h430v414h168v-1415h-168v866h-430v-866h-168v866h-417v-866h-168v866h-132v135h132v132q0 311 286 311q64 0 119 -18t88 -42l-45 -114q-55 37 -131 37q-86 0 -117.5 -47.5t-31.5 -139.5v-119h417v132q0 311 287 311q64 0 119 -18t88 -42l-45 -114
q-55 37 -131 37q-86 0 -118 -47.5t-32 -139.5z" />
    <glyph glyph-name=".notdef" horiz-adv-x="708" 
 />
    <glyph glyph-name=".null" horiz-adv-x="0" 
 />
    <glyph glyph-name=".null" horiz-adv-x="0" 
 />
    <glyph glyph-name="nonmarkingreturn" unicode="&#xd;" horiz-adv-x="532" 
 />
    <glyph glyph-name="uni000A" unicode="&#xa;" horiz-adv-x="731" 
 />
    <glyph glyph-name="space" unicode=" " horiz-adv-x="491" 
 />
    <glyph glyph-name="exclam" unicode="!" horiz-adv-x="456" 
d="M152 360l-9 957h170l-6 -957h-155zM227 190q44 0 74.5 -29.5t30.5 -72.5q0 -44 -30.5 -74t-74.5 -30q-43 0 -72.5 30t-29.5 74q0 43 29.5 72.5t72.5 29.5z" />
    <glyph glyph-name="quotedbl" unicode="&#x22;" horiz-adv-x="546" 
d="M229 1403v-275h-112v275h112zM319 1403h111v-275h-111v275z" />
    <glyph glyph-name="numbersign" unicode="#" horiz-adv-x="1103" 
d="M27 475h219l59 346h-192v137h219l59 347h137l-59 -347h297l59 347h144l-62 -347h168v-137h-192l-62 -346h170v-137h-194l-64 -354h-135l61 354h-297l-61 -354h-143l63 354h-194v137zM444 821l-59 -346h297l59 346h-297z" />
    <glyph glyph-name="dollar" unicode="$" horiz-adv-x="1153" 
d="M74 188l94 117q61 -77 171.5 -128.5t231.5 -51.5q140 0 223 61.5t83 155.5q0 59 -41.5 104.5t-107 77t-145.5 60t-160 61.5t-145.5 74t-107 105.5t-41.5 146.5q0 139 106 234t281 114v184h170v-184q112 -15 210.5 -70t158.5 -133l-99 -106q-57 77 -151.5 125.5
t-198.5 48.5q-136 0 -216.5 -58t-80.5 -149q0 -57 41.5 -102t107 -76.5t145.5 -60.5t160 -62.5t145.5 -74.5t107 -105.5t41.5 -145.5q0 -139 -101.5 -235t-269.5 -121v-189h-170v183q-137 9 -255.5 64t-186.5 136z" />
    <glyph glyph-name="percent" unicode="%" horiz-adv-x="1515" 
d="M1450 293q0 -150 -79 -237t-206 -87t-206.5 87t-79.5 237t79.5 236.5t206.5 86.5t206 -86.5t79 -236.5zM61 1042q0 150 80 237t207 87t206 -87t79 -237q0 -148 -79 -235.5t-206 -87.5t-207 87.5t-80 235.5zM514 0h-164l647 1305h166zM506 1042q0 112 -44 173t-114 59
q-70 0 -114.5 -60t-45.5 -172q0 -110 45 -170.5t115 -60.5t114 60.5t44 170.5zM1165 61q70 0 114 60t44 172t-44 171.5t-114 59.5t-114 -59.5t-45 -171.5q0 -112 44.5 -172t114.5 -60z" />
    <glyph glyph-name="ampersand" unicode="&#x26;" horiz-adv-x="1265" 
d="M1085 -35q-77 112 -147 193q-74 -80 -180.5 -127t-218.5 -47q-192 0 -310 97.5t-120 254.5q0 62 22.5 120t64.5 108.5t83 88t98 80.5q-150 185 -150 338q0 142 91 231t241 89q146 0 227.5 -83t81.5 -210q0 -51 -17.5 -100.5t-42 -87t-65.5 -78.5t-73 -67.5t-80 -62.5
q220 -213 338 -331q32 61 51.5 141.5t21.5 155.5h132q-2 -107 -30 -215t-77 -189q99 -107 170 -219zM543 127q79 0 159 38t134 101q-207 207 -363 355q-41 -33 -69.5 -60t-61 -64.5t-49.5 -78t-17 -80.5q0 -95 75 -153t192 -58zM377 1075q0 -114 123 -266q53 37 86 63
t72 64.5t58 79.5t19 86q0 72 -47 118t-127 46q-84 0 -134 -52t-50 -139z" />
    <glyph glyph-name="quotesingle" unicode="'" horiz-adv-x="346" 
d="M229 1128h-112v275h112v-275z" />
    <glyph glyph-name="parenleft" unicode="(" horiz-adv-x="561" 
d="M537 -158h-158q-61 69 -107 141.5t-86 171.5t-61 228.5t-21 284.5t21 283.5t61 226t85.5 168.5t107.5 139h158q-48 -55 -82 -103t-70 -120.5t-58.5 -152.5t-36.5 -193t-14 -248q0 -167 20 -299t59 -229t80.5 -163t101.5 -135z" />
    <glyph glyph-name="parenright" unicode=")" horiz-adv-x="561" 
d="M457 668q0 -155 -21 -284.5t-61 -228.5t-86 -171.5t-107 -141.5h-155q59 69 100.5 135t80.5 163t59 229t20 299q0 135 -14.5 248t-36.5 192.5t-58 152.5t-70 121t-81 103h155q62 -68 107.5 -139t85.5 -168.5t61 -226t21 -283.5z" />
    <glyph glyph-name="asterisk" unicode="*" horiz-adv-x="966" 
d="M156 1126h252l-123 254l82 37l116 -254l117 254l82 -37l-123 -254h252v-88h-252l123 -254l-82 -36l-117 253l-116 -253l-82 36l123 254h-252v88z" />
    <glyph glyph-name="plus" unicode="+" horiz-adv-x="1077" 
d="M469 205v381h-369v137h369v383h137v-383h369v-137h-369v-381h-137z" />
    <glyph glyph-name="comma" unicode="," horiz-adv-x="380" 
d="M98 -115l47 297h138l-68 -297h-117z" />
    <glyph glyph-name="hyphen" unicode="-" horiz-adv-x="1103" 
d="M252 586v137h600v-137h-600z" />
    <glyph glyph-name="period" unicode="." horiz-adv-x="413" 
d="M98 88q0 42 32 72t77 30q44 0 76 -29.5t32 -72.5t-32 -73.5t-76 -30.5t-76.5 30.5t-32.5 73.5z" />
    <glyph glyph-name="slash" unicode="/" horiz-adv-x="774" 
d="M18 -123l570 1567h164l-570 -1567h-164z" />
    <glyph glyph-name="zero" unicode="0" horiz-adv-x="1116" 
d="M559 1339q231 0 363.5 -184t132.5 -493t-132.5 -493.5t-363.5 -184.5q-232 0 -364 184t-132 494t132 493.5t364 183.5zM250 662q0 -258 81.5 -396.5t227.5 -138.5q144 0 225.5 138.5t81.5 396.5t-81 395t-226 137q-146 0 -227.5 -137t-81.5 -395z" />
    <glyph glyph-name="one" unicode="1" horiz-adv-x="1019" 
d="M584 1135l-275 -107l-49 148l385 141h117v-1317h-178v1135z" />
    <glyph glyph-name="two" unicode="2" horiz-adv-x="1042" 
d="M100 113q34 54 116.5 139t171 170t175 177t144.5 187.5t63 174.5q6 104 -61.5 168.5t-180.5 64.5q-96 0 -178.5 -61t-128.5 -166l-133 57q51 134 171.5 224.5t285.5 90.5q186 0 297.5 -100t111.5 -264q0 -68 -25.5 -140.5t-69.5 -139t-96.5 -131t-112.5 -125t-112.5 -111
t-101.5 -99.5t-74 -82h584v-147h-846v113z" />
    <glyph glyph-name="three" unicode="3" horiz-adv-x="1062" 
d="M231 967l-135 57q50 146 172 230.5t285 84.5q178 0 293 -99t115 -253q0 -105 -55.5 -187.5t-149.5 -117.5q102 -35 166.5 -120t64.5 -200q0 -167 -126.5 -272.5t-332.5 -105.5q-63 0 -125.5 13.5t-124.5 42t-115 79.5t-85 119l131 63q36 -64 93 -105t106.5 -55t97.5 -14
q133 0 214 69.5t81 174.5q0 97 -73.5 163t-184.5 72q-66 12 -176 12v130q112 0 178 12q112 6 180 65t68 150q0 96 -70.5 157.5t-179.5 61.5q-103 0 -186 -60t-126 -167z" />
    <glyph glyph-name="four" unicode="4" horiz-adv-x="1093" 
d="M782 1317l-538 -887h463v377h176v-377h174v-147h-174v-283h-176v283h-672v118l551 916h196z" />
    <glyph glyph-name="five" unicode="5" horiz-adv-x="1079" 
d="M154 651l61 666h735v-148h-583l-33 -348q97 51 209 51q127 -1 227.5 -50.5t161.5 -150t61 -237.5q0 -211 -135 -330.5t-342 -119.5q-150 0 -264.5 75.5t-163.5 178.5l129 63q47 -82 124.5 -128t164.5 -46q132 0 216.5 84.5t84.5 224.5q0 136 -79 219.5t-204 83.5
q-56 0 -100 -13.5t-65.5 -30.5t-46.5 -30.5t-48 -13.5h-110z" />
    <glyph glyph-name="six" unicode="6" horiz-adv-x="1019" 
d="M760 1317q-160 -213 -354 -496q75 21 133 21q181 0 297 -121.5t116 -304.5q0 -199 -123 -315.5t-319 -116.5q-194 0 -318 126t-124 328q0 84 30 173t80 163q37 57 76.5 114.5t84.5 120.5t74 102.5t81 110.5t69 95h197zM510 705q-115 0 -186 -78t-72 -211
q0 -132 71.5 -209.5t186.5 -77.5q117 0 187.5 77.5t70.5 209.5q0 133 -71 211t-187 78z" />
    <glyph glyph-name="seven" unicode="7" horiz-adv-x="1042" 
d="M723 1169h-592l-2 148h782l2 -103l-491 -1214h-189z" />
    <glyph glyph-name="eight" unicode="8" horiz-adv-x="1062" 
d="M135 1012q0 148 108.5 237.5t288.5 89.5q179 0 288.5 -90t109.5 -237q0 -95 -46 -169.5t-126 -109.5q111 -39 176 -131.5t65 -216.5q-1 -181 -129.5 -291t-337.5 -110q-211 0 -338.5 110t-127.5 291q0 124 64 217t175 131q-79 35 -124.5 109.5t-45.5 169.5zM250 385
q0 -116 77.5 -187t204.5 -71q126 0 203.5 71t77.5 187q0 117 -77.5 187.5t-203.5 70.5q-128 0 -205 -70.5t-77 -187.5zM303 997q0 -89 63 -143.5t166 -54.5t165.5 54.5t62.5 143.5t-62.5 143t-165.5 54t-166 -54t-63 -143z" />
    <glyph glyph-name="nine" unicode="9" horiz-adv-x="1093" 
d="M287 0q54 69 169.5 232.5t180.5 259.5q-73 -17 -127 -17q-170 0 -288 116t-118 304q-1 204 126 324t323 120q200 0 319 -123.5t117 -322.5q0 -168 -104 -328q-56 -86 -119 -175.5t-159 -221t-122 -168.5h-198zM289 899q1 -134 72 -211.5t186 -77.5t186 77.5t72 211.5
q0 135 -71 215t-187 80q-117 0 -188 -80t-70 -215z" />
    <glyph glyph-name="colon" unicode=":" horiz-adv-x="442" 
d="M223 -16q-45 0 -76.5 30t-31.5 74q0 43 32 72.5t76 29.5t75.5 -29.5t31.5 -72.5q0 -44 -31 -74t-76 -30zM219 979q44 0 76.5 -31t32.5 -74q0 -42 -32 -72t-77 -30q-44 0 -75 29.5t-31 72.5t31 74t75 31z" />
    <glyph glyph-name="semicolon" unicode=";" horiz-adv-x="454" 
d="M236 772q-45 0 -77 30t-32 72q0 43 32.5 74t76.5 31t75 -31t31 -74t-31 -72.5t-75 -29.5zM160 182h135l-66 -297h-116z" />
    <glyph glyph-name="less" unicode="&#x3c;" horiz-adv-x="1077" 
d="M141 522v172l807 361v-164l-667 -283l667 -286v-166z" />
    <glyph glyph-name="equal" unicode="=" horiz-adv-x="1034" 
d="M139 756v137h756v-137h-756zM139 549h756v-137h-756v137z" />
    <glyph glyph-name="greater" unicode="&#x3e;" horiz-adv-x="1058" 
d="M121 322l667 286l-667 283v164l807 -361v-172l-807 -366v166z" />
    <glyph glyph-name="question" unicode="?" horiz-adv-x="917" 
d="M315 350q0 98 36.5 186.5t88.5 153t103.5 123t88 120.5t36.5 122q0 75 -63 120.5t-163 45.5q-81 0 -153.5 -35t-118.5 -96l-88 98q59 75 159.5 123.5t219.5 48.5q160 0 267.5 -79.5t107.5 -217.5q0 -58 -20 -113.5t-51.5 -101t-69.5 -90.5t-76.5 -91t-70 -93t-51.5 -105
t-20 -119h-162zM291 88q0 43 30.5 72.5t73.5 29.5t74 -30t31 -72q0 -43 -31 -73.5t-74 -30.5t-73.5 30.5t-30.5 73.5z" />
    <glyph glyph-name="at" unicode="@" horiz-adv-x="1849" 
d="M1315 467q-3 -54 -4 -82t-0.5 -66t6 -57t15.5 -38t27 -26.5t42 -7.5q84 0 152 119q78 135 88 331q13 248 -98 425q-149 239 -478 257q-22 1 -45 1q-148 1 -277 -44.5t-222 -124.5t-161 -183t-102.5 -221t-38.5 -238q-3 -114 23 -218.5t79.5 -194t142 -156.5t204.5 -99
q114 -51 241 -51q165 0 293 82l55 -102q-146 -88 -337 -88q-148 0 -275 53q-112 28 -204 84t-156 130.5t-107.5 165.5t-62.5 190.5t-17 203.5q4 137 44 269.5t118 251t185 208t255.5 142.5t319.5 53q375 0 571 -243q147 -182 161 -453q12 -232 -75 -423q-79 -172 -202 -227
q-49 -22 -101 -22q-71 0 -123 41t-67 106q-96 -170 -307 -170q-196 0 -305 142.5t-97 357.5q8 140 65 252t161.5 179.5t240.5 67.5q157 0 252 -92l6 92h148zM973 913q-137 0 -225 -99.5t-97 -268.5q-9 -168 64 -268.5t196 -100.5q95 0 162.5 57t91.5 148q2 48 10 206t11 222
q-74 104 -213 104z" />
    <glyph glyph-name="A" unicode="A" horiz-adv-x="1263" 
d="M899 358h-537l-129 -358h-190l492 1317h194l492 -1317h-191zM410 502h444l-223 614z" />
    <glyph glyph-name="B" unicode="B" horiz-adv-x="1210" 
d="M1094 979q0 -97 -44 -178t-118 -121q92 -36 148.5 -123t56.5 -199q0 -166 -108.5 -262t-283.5 -96h-608v1317h578q173 0 276 -90.5t103 -247.5zM313 147h385q119 0 185.5 62t66.5 170q0 107 -66.5 168t-185.5 61h-385v-461zM684 1169h-371v-413h371q102 0 162.5 54.5
t60.5 152.5q0 97 -61 151.5t-162 54.5z" />
    <glyph glyph-name="C" unicode="C" horiz-adv-x="1183" 
d="M281 662q0 -246 112 -390.5t303 -144.5q204 0 338 176l96 -108q-170 -211 -436 -211q-143 0 -258.5 54t-190 147t-114 215t-39.5 262q0 301 165.5 488t430.5 189q275 0 442 -211l-96 -108q-132 174 -338 174q-191 0 -303 -144t-112 -388z" />
    <glyph glyph-name="D" unicode="D" horiz-adv-x="1302" 
d="M614 1317q270 0 433 -182.5t163 -477.5q0 -193 -73 -342t-208.5 -232t-314.5 -83h-477v1317h477zM313 147h293q193 0 305.5 136.5t112.5 373.5t-112.5 374.5t-305.5 137.5h-293v-1022z" />
    <glyph glyph-name="E" unicode="E" horiz-adv-x="1077" 
d="M313 147h691v-147h-867v1317h867v-148h-691v-413h621v-148h-621v-461z" />
    <glyph glyph-name="F" unicode="F" horiz-adv-x="1050" 
d="M313 741h621v-147h-621v-594h-176v1317h867v-148h-691v-428z" />
    <glyph glyph-name="G" unicode="G" horiz-adv-x="1282" 
d="M698 1194q-193 0 -305 -142t-112 -390t111 -391.5t298 -143.5q86 0 169.5 36.5t139.5 96.5v324h-319v147h479v-536q-72 -92 -198 -151.5t-267 -59.5q-143 0 -259 54t-190 147t-113.5 215t-39.5 262q0 305 165.5 491t430.5 186q275 0 442 -211l-96 -108q-132 174 -336 174
z" />
    <glyph glyph-name="H" unicode="H" horiz-adv-x="1304" 
d="M313 608v-608h-176v1317h176v-561h678v561h176v-1317h-176v608h-678z" />
    <glyph glyph-name="I" unicode="I" horiz-adv-x="450" 
d="M137 0v1317h176v-1317h-176z" />
    <glyph glyph-name="J" unicode="J" horiz-adv-x="1128" 
d="M489 127q63 0 117.5 16t104.5 53t79 109t29 172v840h176v-842q0 -121 -37.5 -215.5t-104 -154t-155 -90.5t-194.5 -31q-146 0 -263 57.5t-190 151.5l96 110q61 -80 148 -128t194 -48z" />
    <glyph glyph-name="K" unicode="K" horiz-adv-x="1236" 
d="M313 483v-483h-176v1317h176v-612l602 612h203l-526 -543l616 -774h-202l-527 649z" />
    <glyph glyph-name="L" unicode="L" horiz-adv-x="974" 
d="M313 1317v-1170h594v-147h-770v1317h176z" />
    <glyph glyph-name="M" unicode="M" horiz-adv-x="1646" 
d="M309 1008v-1008h-176v1317h207l483 -1047l484 1047h206v-1317h-176v1008l-434 -953h-160z" />
    <glyph glyph-name="N" unicode="N" horiz-adv-x="1355" 
d="M313 1036v-1036h-176v1317h189l714 -1036v1036h179v-1317h-189z" />
    <glyph glyph-name="O" unicode="O" horiz-adv-x="1302" 
d="M1208 662q0 -197 -66.5 -350.5t-193.5 -240.5t-297 -87t-297 87t-193.5 240.5t-66.5 350.5t66.5 350t193.5 240t297 87t297 -87t193.5 -240t66.5 -350zM651 1194q-166 0 -267 -139t-101 -393q0 -255 101 -395t267 -140t267.5 140t101.5 395q0 254 -101.5 393t-267.5 139z
" />
    <glyph glyph-name="P" unicode="P" horiz-adv-x="1171" 
d="M700 489h-387v-489h-176v1317h563q81 0 153 -26t129 -75.5t90.5 -130t33.5 -182.5t-33.5 -182.5t-90.5 -130t-129 -75.5t-153 -26zM313 1169v-532h367q114 0 180 72.5t66 193.5q0 122 -65 194t-181 72h-367z" />
    <glyph glyph-name="Q" unicode="Q" horiz-adv-x="1302" 
d="M829 -311l-219 297q-157 9 -274.5 98t-179.5 238.5t-62 339.5q0 197 66.5 350t193.5 240t297 87t297 -87t193.5 -240t66.5 -350q0 -254 -111.5 -434t-301.5 -224l237 -315h-203zM283 662q0 -255 101 -395t265 -140q166 0 268.5 140.5t102.5 396.5q0 253 -101.5 391.5
t-267.5 138.5t-267 -139t-101 -393z" />
    <glyph glyph-name="R" unicode="R" horiz-adv-x="1185" 
d="M313 518v-518h-176v1317h547q81 0 152.5 -25t128 -72t89.5 -123.5t33 -172.5q0 -151 -78.5 -253.5t-205.5 -129.5l336 -541h-197l-315 518h-314zM313 666h336q119 0 189.5 68t70.5 184q0 117 -66.5 184t-180.5 67h-349v-503z" />
    <glyph glyph-name="S" unicode="S" horiz-adv-x="1128" 
d="M854 346q0 59 -41.5 105.5t-107 77.5t-145.5 60t-160 62.5t-145.5 75t-107 106.5t-41.5 148q0 159 127.5 258.5t335.5 99.5q151 0 270.5 -58t192.5 -153l-98 -110q-60 80 -150.5 128t-201.5 48q-134 0 -214.5 -58t-80.5 -149q0 -45 25.5 -83t69 -65.5t99.5 -52t118 -48
t123.5 -48t117.5 -57t99.5 -70.5t69 -92t25.5 -119q0 -163 -131 -265.5t-344 -102.5q-164 0 -297.5 57t-210.5 149l94 119q61 -79 170.5 -130.5t233.5 -51.5q140 0 222.5 61.5t82.5 157.5z" />
    <glyph glyph-name="T" unicode="T" horiz-adv-x="1130" 
d="M477 0v1169h-420v148h1018v-148h-422v-1169h-176z" />
    <glyph glyph-name="U" unicode="U" horiz-adv-x="1288" 
d="M313 1317v-840q0 -101 28.5 -172.5t78 -108.5t103.5 -53t118 -16q51 0 96 9t89.5 33.5t76.5 62.5t52 101t20 144v840h176v-842q0 -160 -67.5 -272.5t-180.5 -165.5t-262 -53q-227 0 -365.5 126t-138.5 365v842h176z" />
    <glyph glyph-name="V" unicode="V" horiz-adv-x="1265" 
d="M240 1317l393 -1092l393 1092h193l-492 -1317h-188l-494 1317h195z" />
    <glyph glyph-name="W" unicode="W" horiz-adv-x="1990" 
d="M676 0h-189l-428 1317h193l330 -1081l323 1030h182l322 -1030l330 1081h192l-428 -1317h-186l-322 1024z" />
    <glyph glyph-name="X" unicode="X" horiz-adv-x="1241" 
d="M522 688l-432 629h197l338 -488l331 488h195l-430 -631l473 -686h-199l-377 545l-376 -545h-195z" />
    <glyph glyph-name="Y" unicode="Y" horiz-adv-x="1173" 
d="M500 0v469l-459 848h195l352 -674l350 674h195l-457 -848v-469h-176z" />
    <glyph glyph-name="Z" unicode="Z" horiz-adv-x="1128" 
d="M94 1317h930v-117l-737 -1053h764v-147h-994v117l746 1052h-709v148z" />
    <glyph glyph-name="bracketleft" unicode="[" horiz-adv-x="518" 
d="M297 -45h174v-137h-334v1745h334v-136h-174v-1472z" />
    <glyph glyph-name="backslash" unicode="\" horiz-adv-x="772" 
d="M23 1444h161l570 -1567h-160z" />
    <glyph glyph-name="bracketright" unicode="]" horiz-adv-x="518" 
d="M47 -182v137h174v1472h-174v136h334v-1745h-334z" />
    <glyph glyph-name="asciicircum" unicode="^" horiz-adv-x="921" 
d="M461 1278l-191 -547h-157l262 705h172l262 -705h-158z" />
    <glyph glyph-name="underscore" unicode="_" horiz-adv-x="1132" 
d="M1085 -197h-1038v138h1038v-138z" />
    <glyph glyph-name="grave" unicode="`" horiz-adv-x="403" 
d="M86 1479h143l88 -269h-110z" />
    <glyph glyph-name="a" unicode="a" horiz-adv-x="1118" 
d="M528 1020q185 0 289 -129v113h170v-1004h-170v111q-103 -127 -289 -127q-200 0 -317 142.5t-117 375.5q0 232 117 375t317 143zM270 502q0 -181 80 -284t209 -103q85 0 151 41t107 114v463q-41 72 -107 113t-151 41q-129 0 -209 -103t-80 -282z" />
    <glyph glyph-name="b" unicode="b" horiz-adv-x="1126" 
d="M309 111v-111h-170v1415h170v-524q104 129 289 129q200 0 317 -143t117 -375t-117 -375t-317 -143q-186 0 -289 127zM309 733v-463q41 -73 106.5 -114t149.5 -41q130 0 210.5 103.5t80.5 283.5t-80.5 282.5t-210.5 102.5q-84 0 -149.5 -41t-106.5 -113z" />
    <glyph glyph-name="c" unicode="c" horiz-adv-x="950" 
d="M571 887q-135 0 -218 -102.5t-83 -282.5q0 -176 83.5 -281.5t217.5 -105.5q148 0 238 116l88 -96q-115 -151 -336 -151q-210 0 -338.5 144t-128.5 374t128.5 374t338.5 144q110 0 195.5 -41t140.5 -113l-88 -94q-89 115 -238 115z" />
    <glyph glyph-name="d" unicode="d" horiz-adv-x="1118" 
d="M528 1020q185 0 289 -129v524h170v-1415h-170v111q-103 -127 -289 -127q-200 0 -317 142.5t-117 375.5q0 232 117 375t317 143zM559 887q-129 0 -209 -103t-80 -282q0 -181 80 -284t209 -103q85 0 151 41t107 114v463q-41 72 -107 113t-151 41z" />
    <glyph glyph-name="e" unicode="e" horiz-adv-x="1048" 
d="M956 481h-686q-3 -148 80 -258q84 -108 230 -108q160 0 249 116l86 -94q-52 -71 -144 -112t-208 -41q-212 0 -340.5 143t-128.5 373q0 150 51 266.5t154 185t244 68.5q135 0 230.5 -63.5t140 -166.5t44.5 -233zM547 887q-121 0 -192.5 -79.5t-82.5 -211.5h533
q0 130 -68.5 210.5t-189.5 80.5z" />
    <glyph glyph-name="f" unicode="f" horiz-adv-x="675" 
d="M373 0h-168v866h-131v138h131v129q0 307 280 313q123 0 213 -62l-45 -112q-60 37 -131 37q-84 0 -116.5 -49t-32.5 -138v-118h227v-138h-227v-866z" />
    <glyph glyph-name="g" unicode="g" horiz-adv-x="1126" 
d="M528 -16q-200 0 -317 142.5t-117 375.5q0 232 117 375t317 143q185 0 289 -129v113h170v-965q0 -105 -26 -189t-79 -147t-141 -97.5t-206 -35.5q-110 0 -212.5 37t-170.5 102l69 121q51 -54 134 -86.5t169 -32.5q87 0 146.5 24.5t90.5 69.5t43.5 96.5t12.5 118.5v91
q-103 -127 -289 -127zM559 887q-129 0 -209 -103t-80 -282q0 -181 80 -284t209 -103q85 0 151 41t107 114v463q-41 72 -107 113t-151 41z" />
    <glyph glyph-name="h" unicode="h" horiz-adv-x="1101" 
d="M309 680v-680h-170v1415h170v-567q122 172 328 172q162 0 244 -93.5t82 -254.5v-672h-170v641q0 104 -51 166.5t-156 62.5q-94 0 -165.5 -51t-111.5 -139z" />
    <glyph glyph-name="i" unicode="i" horiz-adv-x="456" 
d="M143 1004h170v-1004h-170v1004zM227 1413q46 0 77.5 -30.5t31.5 -73.5t-31.5 -73t-77.5 -30q-44 0 -76 30t-32 73t32 73.5t76 30.5z" />
    <glyph glyph-name="j" unicode="j" horiz-adv-x="462" 
d="M150 1004h169v-1055q0 -191 -83 -285t-287 -94v143q67 2 108 18.5t61 51t26 73.5t6 103v1045zM127 1309q0 44 32 74t77 30q44 0 75 -30t31 -74q0 -43 -31 -73t-75 -30t-76.5 30t-32.5 73z" />
    <glyph glyph-name="k" unicode="k" horiz-adv-x="1052" 
d="M309 543l494 461h203l-457 -431l475 -573h-184l-394 477l-137 -129v-348h-170v1415h170v-872z" />
    <glyph glyph-name="l" unicode="l" horiz-adv-x="448" 
d="M139 0v1415h170v-1415h-170z" />
    <glyph glyph-name="m" unicode="m" horiz-adv-x="1755" 
d="M139 1004h170v-156q122 172 328 172q229 0 295 -186q50 86 138 136t212 50q167 0 250.5 -93t83.5 -253v-674h-168v641q0 104 -52 166.5t-159 62.5q-97 0 -167 -53.5t-107 -144.5v-672h-170v641q0 104 -51 166.5t-156 62.5q-94 0 -165.5 -51t-111.5 -139v-680h-170v1004z
" />
    <glyph glyph-name="n" unicode="n" horiz-adv-x="1101" 
d="M309 680v-680h-170v1004h170v-156q122 172 328 172q162 0 244 -93.5t82 -254.5v-672h-170v641q0 104 -51 166.5t-156 62.5q-94 0 -165.5 -51t-111.5 -139z" />
    <glyph glyph-name="o" unicode="o" 
d="M549 1020q202 0 328.5 -139.5t126.5 -378.5t-126.5 -378.5t-328.5 -139.5t-328.5 139.5t-126.5 378.5t126.5 378.5t328.5 139.5zM549 887q-124 0 -201.5 -100t-77.5 -285q0 -186 78 -286.5t201 -100.5q125 0 202.5 100.5t77.5 286.5t-77.5 285.5t-202.5 99.5z" />
    <glyph glyph-name="p" unicode="p" horiz-adv-x="1126" 
d="M309 111v-523l-170 -2v1418h170v-113q104 129 289 129q200 0 317 -143t117 -375t-117 -375t-317 -143q-186 0 -289 127zM309 733v-463q41 -73 106.5 -114t149.5 -41q130 0 210.5 103.5t80.5 283.5t-80.5 282.5t-210.5 102.5q-167 0 -256 -154z" />
    <glyph glyph-name="q" unicode="q" horiz-adv-x="1126" 
d="M528 1020q185 0 289 -129v113h170v-1418h-170v525q-103 -127 -289 -127q-200 0 -317 142.5t-117 375.5q0 232 117 375t317 143zM559 887q-129 0 -209 -103t-80 -282q0 -181 80 -284t209 -103q85 0 151 41t107 114v463q-41 72 -107 113t-151 41z" />
    <glyph glyph-name="r" unicode="r" horiz-adv-x="722" 
d="M309 657v-657h-170v1004h170v-175q41 83 120.5 137t180.5 54q49 0 99 -16l-43 -136q-52 9 -76 9q-103 0 -176 -60t-105 -160z" />
    <glyph glyph-name="s" unicode="s" horiz-adv-x="897" 
d="M657 260q0 41 -30 74t-77.5 56t-105.5 45t-116 48t-105.5 58t-77.5 82t-30 114q0 125 98.5 204t255.5 79q112 0 203 -41t149 -113l-80 -100q-98 121 -258 121q-94 0 -151.5 -42.5t-57.5 -107.5q0 -39 30 -71t78.5 -54.5t107 -44.5t116.5 -48.5t106.5 -58.5t78.5 -82
t30 -112q0 -127 -102 -204.5t-268 -77.5q-128 0 -231 42.5t-163 108.5l78 107q45 -52 125.5 -89.5t171.5 -37.5q105 0 165 41.5t60 103.5z" />
    <glyph glyph-name="t" unicode="t" horiz-adv-x="714" 
d="M205 1243l168 17v-256h217v-138h-217v-540q0 -109 25.5 -156t103.5 -47q69 0 125 37l47 -117q-93 -59 -215 -59q-66 0 -114 18.5t-74.5 46.5t-42 72.5t-19.5 84t-4 93.5v567h-131v138h131v239z" />
    <glyph glyph-name="u" unicode="u" 
d="M309 360q0 -105 49 -167t154 -62q159 0 276 133v740h170v-1004h-170v121q-134 -137 -327 -137q-162 0 -242 92.5t-80 253.5v674h170v-644z" />
    <glyph glyph-name="v" unicode="v" horiz-adv-x="1007" 
d="M231 1004l273 -820l272 820h178l-360 -1004h-180l-361 1004h178z" />
    <glyph glyph-name="w" unicode="w" horiz-adv-x="1642" 
d="M588 0h-176l-357 1004h178l273 -816l231 816h166l234 -816l270 816h178l-354 -1004h-176l-234 786z" />
    <glyph glyph-name="x" unicode="x" horiz-adv-x="1021" 
d="M414 524l-328 480h182l244 -369l244 369h180l-328 -480l379 -524h-182l-293 414l-295 -414h-182z" />
    <glyph glyph-name="y" unicode="y" horiz-adv-x="1009" 
d="M119 -428v143q57 0 96 10.5t76.5 40.5t66.5 87t56 147l-361 1004h178l275 -824l270 824h178l-358 -1004q-20 -55 -32.5 -87t-32 -76t-34.5 -69t-38 -57.5t-45.5 -50t-53.5 -37.5t-66 -29t-79 -15.5t-96 -6.5z" />
    <glyph glyph-name="z" unicode="z" horiz-adv-x="917" 
d="M109 1004h712v-105l-563 -762h576v-137h-783v106l563 760h-505v138z" />
    <glyph glyph-name="braceleft" unicode="{" horiz-adv-x="587" 
d="M70 729q103 46 132 105t27 206q0 10 -2 63t-2 68.5t1 59.5t5.5 65t11.5 53.5t20 55.5t30 43q59 74 188 74q40 0 56 -2v-134q-9 3 -17 3q-67 0 -100 -39q-18 -22 -26 -62.5t-8.5 -70.5t2.5 -99t3 -94q3 -141 -26 -219t-127 -146q97 -67 126.5 -144.5t26.5 -217.5
q0 -25 -3 -94.5t-2.5 -99.5t8.5 -70t26 -62q14 -17 35 -26.5t38 -11t44 -1.5v-131q-32 -4 -56 -4q-129 0 -188 74q-17 20 -30 43t-20 56t-11.5 53.5t-5.5 65t-1 60t2 68.5t2 62q2 149 -27 208t-132 105v137z" />
    <glyph glyph-name="bar" unicode="|" horiz-adv-x="477" 
d="M328 -414h-178v2022h178v-2022z" />
    <glyph glyph-name="braceright" unicode="}" horiz-adv-x="587" 
d="M51 1520q16 2 55 2q130 0 189 -74q20 -23 34 -55t20.5 -58.5t9 -72t2.5 -70t-1.5 -78.5t-1.5 -74q-2 -146 27.5 -205.5t132.5 -105.5v-137q-104 -46 -133 -105.5t-27 -207.5q0 -13 2 -62.5t2 -67.5t-0.5 -60.5t-5 -64.5t-11.5 -54t-20 -55.5t-30 -43.5q-59 -74 -189 -74
q-23 0 -55 4v131q27 0 44 1.5t38 11t35 26.5q18 22 26 62t8.5 70t-2.5 99.5t-3 94.5q-3 140 26.5 217.5t126.5 144.5q-98 68 -127 146t-26 219q0 25 3 94t2.5 99t-8.5 70.5t-26 62.5q-33 39 -100 39q-8 0 -17 -3v134z" />
    <glyph glyph-name="asciitilde" unicode="~" horiz-adv-x="899" 
d="M332 823q47 0 91.5 -26t80 -52t59.5 -26q20 0 35.5 14t15.5 41h107q0 -71 -41 -115.5t-102 -44.5q-35 0 -71.5 17.5t-62 38t-54 38t-50.5 17.5q-23 0 -39 -16.5t-16 -44.5h-105q0 74 45 116.5t107 42.5z" />
    <glyph glyph-name="exclamdown" unicode="&#xa1;" horiz-adv-x="460" 
d="M315 -59h-170l7 956h155zM233 1284q43 0 74 -30t31 -74q0 -43 -31 -73t-74 -30t-73.5 30t-30.5 73q0 44 30.5 74t73.5 30z" />
    <glyph glyph-name="cent" unicode="&#xa2;" horiz-adv-x="1019" 
d="M588 1004q-137 0 -224.5 -103.5t-87.5 -282.5q0 -175 88.5 -280t223.5 -105q149 0 235 115l88 -94q-96 -131 -272 -148v-229h-135v229q-182 23 -288.5 163t-106.5 349q0 210 106.5 349.5t288.5 162.5v242h135v-242q176 -18 272 -147l-88 -94q-86 115 -235 115z" />
    <glyph glyph-name="sterling" unicode="&#xa3;" horiz-adv-x="1067" 
d="M35 0v139q43 0 76 37q22 9 40.5 25t30.5 41.5t21.5 49.5t14.5 60t8.5 60.5t5 65t1.5 59v55.5h-165v137h168q2 72 7 131t18 124t33 114.5t53.5 96.5t77.5 77.5t106.5 48.5t140.5 18q245 0 360 -196l-121 -72q-82 131 -229 131q-192 0 -246 -190q-24 -85 -28 -272v-11h352
v-137h-357q-1 -98 -6 -167.5t-28.5 -157.5t-65.5 -130h604v-137h-872z" />
    <glyph glyph-name="currency" unicode="&#xa4;" horiz-adv-x="1054" 
d="M174 936l-82 80l92 94l74 -74q113 99 270 99q156 0 269 -99l75 74l93 -94l-82 -80q69 -113 69 -260q0 -145 -69 -258l82 -82l-93 -94l-75 73q-110 -96 -269 -96q-160 0 -270 96l-74 -73l-92 94l80 82q-70 115 -70 258q0 147 72 260zM528 1014q-142 0 -225.5 -97.5
t-83.5 -240.5t83.5 -240.5t225.5 -97.5t225 97.5t83 240.5t-83 240.5t-225 97.5z" />
    <glyph glyph-name="yen" unicode="&#xa5;" horiz-adv-x="1116" 
d="M12 1317h195l352 -674l350 674h195l-412 -760h221v-102h-266v-115h266v-90h-266v-250h-178v250h-270v90h270l2 115h-272v102h227z" />
    <glyph glyph-name="brokenbar" unicode="&#xa6;" horiz-adv-x="477" 
d="M150 715v893h178v-893h-178zM328 438v-852h-178v852h178z" />
    <glyph glyph-name="section" unicode="&#xa7;" horiz-adv-x="1062" 
d="M143 41l84 102q47 -52 128.5 -89.5t174.5 -37.5q105 0 171.5 41.5t66.5 106.5q0 40 -24.5 72t-65 52t-92 40.5t-105 37t-105 42t-92 55t-65 76t-24.5 104.5q0 139 114 213q-114 72 -114 199q0 131 105.5 207.5t264.5 76.5q100 -2 193.5 -35t152.5 -94l-82 -92
q-49 41 -120 65.5t-142 26.5q-104 0 -160.5 -43t-56.5 -108q0 -40 31.5 -71t82 -52.5t111.5 -41.5t122 -46t111.5 -59t82 -87t31.5 -124q0 -130 -113 -201q113 -77 113 -209q0 -127 -102.5 -206.5t-272.5 -78.5q-129 1 -236.5 46.5t-167.5 111.5zM350 649q0 -34 20.5 -61
t58.5 -47t75 -34t87.5 -31.5t78.5 -29.5q47 20 72.5 53.5t25.5 73.5q0 31 -15.5 57.5t-38 44.5t-58.5 36t-65.5 28.5t-72.5 26t-67 25.5q-49 -21 -75 -60t-26 -82z" />
    <glyph glyph-name="dieresis" unicode="&#xa8;" horiz-adv-x="636" 
d="M264 1325q0 -35 -25 -58.5t-61 -23.5t-61 23.5t-25 58.5q0 34 25.5 58t60.5 24t60.5 -24t25.5 -58zM373 1325q0 34 25 58t61 24q35 0 59.5 -24t24.5 -58q0 -35 -24.5 -58.5t-59.5 -23.5q-37 0 -61.5 23.5t-24.5 58.5z" />
    <glyph glyph-name="copyright" unicode="&#xa9;" horiz-adv-x="1460" 
d="M733 1366q127 0 234 -40t180.5 -108t125 -158t75.5 -188.5t24 -201.5q0 -102 -24 -200.5t-75.5 -188.5t-125 -157.5t-180.5 -108t-234 -40.5t-234.5 40.5t-182 108t-127 157.5t-77 188.5t-24.5 200.5q0 103 24.5 201.5t77 188.5t127 158t182 108t234.5 40zM1282 670
q0 89 -20.5 174.5t-64.5 163.5t-107.5 137t-155.5 94t-201 35t-202 -35t-157 -94t-109 -137t-66 -163.5t-21 -174.5q0 -88 21 -173.5t66 -163.5t109 -136.5t157 -93.5t202 -35t201 35t155.5 93.5t107.5 136.5t64.5 163t20.5 174zM348 670q0 196 108.5 317t286.5 121
q187 0 285 -129l-67 -82q-78 100 -205 100q-122 -1 -194.5 -93.5t-72.5 -233.5t74 -233.5t197 -92.5t201 100l67 -82q-98 -129 -285 -129q-178 0 -286.5 121.5t-108.5 315.5z" />
    <glyph glyph-name="ordfeminine" unicode="&#xaa;" horiz-adv-x="901" 
d="M440 1395q132 0 209 -90v79h127v-720h-127v79q-76 -92 -209 -92q-143 0 -229 102.5t-86 268.5q0 167 85.5 270t229.5 103zM254 1022q0 -128 58.5 -202.5t152.5 -74.5q119 0 184 113v332q-65 110 -184 110q-94 0 -152.5 -74t-58.5 -204z" />
    <glyph glyph-name="guillemotleft" unicode="&#xab;" horiz-adv-x="763" 
d="M371 676l172 213h71l-120 -213l120 -213h-71zM270 676l123 -213h-71l-172 213l172 213h71z" />
    <glyph glyph-name="logicalnot" unicode="&#xac;" horiz-adv-x="1011" 
d="M821 418h-143v188h-500v137h643v-325z" />
    <glyph glyph-name="uni00AD" unicode="&#xad;" horiz-adv-x="956" 
d="M778 586h-600v137h600v-137z" />
    <glyph glyph-name="registered" unicode="&#xae;" horiz-adv-x="1216" 
d="M100 817q0 81 19 158.5t60.5 148.5t100 124.5t144 85.5t186.5 32q100 0 185 -32t143 -85.5t99 -124.5t60 -148.5t19 -158.5t-19 -159.5t-60 -149.5t-99 -124.5t-143 -85.5t-185 -32q-101 0 -186 32t-144 85.5t-100.5 124.5t-60.5 149.5t-19 159.5zM1032 815
q0 90 -24.5 170t-73.5 146.5t-132 105.5t-190 39q-109 0 -193 -39t-133.5 -105.5t-74.5 -146.5t-25 -170q0 -69 15.5 -134.5t49.5 -125.5t82.5 -105t120.5 -71.5t158 -26.5q106 0 188.5 40t132 107.5t74.5 148t25 167.5zM868 485h-98l-145 271h-142v-271h-96v662h277
q89 0 146.5 -53.5t57.5 -141.5q0 -72 -39.5 -122.5t-109.5 -65.5zM653 838q51 0 84 29t33 87q0 57 -33 84t-84 27h-170v-227h170z" />
    <glyph glyph-name="macron" unicode="&#xaf;" horiz-adv-x="743" 
d="M600 1251h-455v117h455v-117z" />
    <glyph glyph-name="degree" unicode="&#xb0;" horiz-adv-x="974" 
d="M487 1456q127 0 204 -83t77 -208q0 -126 -76.5 -208.5t-204.5 -82.5q-127 0 -203.5 82.5t-76.5 208.5q0 125 77 208t203 83zM487 1356q-83 0 -123 -56t-40 -135q0 -81 40 -136.5t123 -55.5q84 0 125 55.5t41 136.5q0 79 -41 135t-125 56z" />
    <glyph glyph-name="plusminus" unicode="&#xb1;" horiz-adv-x="1064" 
d="M596 227h-137v383h-369v138h369v380h137v-380h369v-138h-369v-383zM113 90h827v-137h-827v137z" />
    <glyph glyph-name="twosuperior" unicode="&#xb2;" horiz-adv-x="851" 
d="M195 743q27 37 92 106.5t117.5 125.5t97 124.5t47.5 117.5q4 60 -30 93t-97 33q-111 0 -172 -124l-86 38q35 83 101.5 133t166.5 50q108 0 172 -58t64 -155q0 -50 -22 -104t-62.5 -107.5t-75.5 -93.5t-84 -90.5t-66 -69.5h318v-98h-481v79z" />
    <glyph glyph-name="threesuperior" unicode="&#xb3;" horiz-adv-x="827" 
d="M246 1217l-90 30q16 78 88 135.5t174 57.5q100 0 168.5 -59t68.5 -148q0 -60 -30.5 -106.5t-77.5 -69.5q50 -23 84.5 -69.5t34.5 -110.5q0 -97 -74 -160.5t-186 -63.5q-76 0 -147 40t-107 110l86 43q53 -96 157 -96q64 0 108 36.5t44 94.5q0 55 -37 89.5t-98 37.5
q-36 8 -103 8v86q65 0 103 6q61 5 98 36t37 81q0 52 -38.5 85t-98.5 33q-62 0 -105 -35.5t-59 -90.5z" />
    <glyph glyph-name="acute" unicode="&#xb4;" horiz-adv-x="403" 
d="M86 1210l88 269h143l-120 -269h-111z" />
    <glyph glyph-name="mu" unicode="&#xb5;" horiz-adv-x="1122" 
d="M309 1004v-617q0 -52 11 -97t35 -85.5t70 -64t110 -23.5q75 0 151 34.5t127 92.5v760h170v-1004h-170v106q-56 -59 -131 -91.5t-156 -32.5q-78 0 -133.5 30t-83.5 74v-448h-170v1366h170z" />
    <glyph glyph-name="paragraph" unicode="&#xb6;" horiz-adv-x="1187" 
d="M598 614h-131q-74 0 -137.5 19.5t-115.5 59.5t-82 107.5t-30 155.5t30 156.5t81.5 109.5t116 62t137.5 21h625v-121h-82v-1387h-160v1387h-139v-1184h-113v614z" />
    <glyph glyph-name="periodcentered" unicode="&#xb7;" horiz-adv-x="391" 
d="M80 678q0 45 34.5 77.5t82.5 32.5q47 0 80.5 -32t33.5 -78q0 -44 -33.5 -76.5t-80.5 -32.5t-82 32.5t-35 76.5z" />
    <glyph glyph-name="cedilla" unicode="&#xb8;" horiz-adv-x="493" 
d="M324 -272q8 54 -36 89t-106 42l21 153h104l-35 -100q69 -19 114 -72.5t34 -132.5q-9 -69 -60 -112t-129 -44q-86 0 -159 62l41 65q52 -36 108 -36q42 2 70.5 25t32.5 61z" />
    <glyph glyph-name="onesuperior" unicode="&#xb9;" horiz-adv-x="733" 
d="M371 1296l-150 -53l-33 96l205 74h92v-749h-114v632z" />
    <glyph glyph-name="ordmasculine" unicode="&#xba;" horiz-adv-x="866" 
d="M432 1440q150 0 231.5 -105t81.5 -288q0 -182 -81.5 -288t-231.5 -106q-148 0 -229.5 106t-81.5 288q0 183 81 288t230 105zM244 1047q0 -293 188 -293q191 0 191 293q0 294 -191 294q-188 0 -188 -294z" />
    <glyph glyph-name="guillemotright" unicode="&#xbb;" horiz-adv-x="763" 
d="M371 889h71l172 -213l-172 -213h-71l121 213zM150 463l120 213l-120 213h71l172 -213l-172 -213h-71z" />
    <glyph glyph-name="onequarter" unicode="&#xbc;" horiz-adv-x="1499" 
d="M350 -123l537 1567h121l-537 -1567h-121zM1311 145v-145h-109v145h-375v88l279 519h111l-265 -510h250v200h107l2 -200h98v-97h-98zM385 1413v-749h-113v632l-149 -53l-33 96l205 74h90z" />
    <glyph glyph-name="onehalf" unicode="&#xbd;" horiz-adv-x="1572" 
d="M358 -123l537 1567h119l-535 -1567h-121zM1034 555l-88 39q80 182 268 182q108 0 172 -58t64 -155q0 -50 -22 -104t-61.5 -107.5t-75 -94t-83.5 -90t-65 -69.5h315v-98h-481v82q27 36 92.5 105t118.5 125t97.5 124t47.5 117q3 60 -31.5 93.5t-97.5 33.5q-112 0 -170 -125
zM123 1243l-33 96l211 74h84v-749h-113v632z" />
    <glyph glyph-name="threequarters" unicode="&#xbe;" horiz-adv-x="1542" 
d="M451 -123l553 1567h120l-553 -1567h-120zM586 1233q0 -60 -31 -106.5t-78 -69.5q50 -23 84.5 -69.5t34.5 -110.5q0 -97 -74 -160.5t-186 -63.5q-76 0 -147 40t-107 110l86 43q53 -96 158 -96q64 0 107.5 36.5t43.5 94.5q0 55 -38 89.5t-99 37.5q-33 8 -100 8v86
q35 0 59.5 1t61 8t59.5 19t40 36.5t17 58.5q0 52 -38.5 85t-98.5 33q-62 0 -105 -35.5t-59 -90.5l-90 30q16 78 88 135.5t174 57.5q100 0 169 -59t69 -148zM1264 752l-263 -510h248v200h107l4 -200h98v-97h-98v-145h-111v145h-372v88l276 519h111z" />
    <glyph glyph-name="questiondown" unicode="&#xbf;" horiz-adv-x="917" 
d="M250 182q0 -74 61 -120t164 -46q81 0 153 35t120 96l88 -96q-61 -77 -159.5 -125.5t-219.5 -48.5q-159 0 -267 80t-108 217q0 58 19.5 114t51.5 101.5t70 90.5t76 90.5t70 92.5t51.5 105t19.5 119h162q0 -98 -36.5 -186.5t-88 -153t-103 -123t-88 -120.5t-36.5 -122z
M418 1149q0 44 30.5 74t73.5 30t74 -30t31 -74q0 -42 -31 -72t-74 -30t-73.5 29.5t-30.5 72.5z" />
    <glyph glyph-name="Agrave" unicode="&#xc0;" horiz-adv-x="1255" 
d="M897 358h-539l-129 -358h-190l491 1317h195l492 -1317h-191zM627 1116l-221 -614h444zM481 1763h146l88 -268h-111z" />
    <glyph glyph-name="Aacute" unicode="&#xc1;" horiz-adv-x="1255" 
d="M897 358h-539l-129 -358h-190l491 1317h195l492 -1317h-191zM627 1116l-221 -614h444zM651 1495h-110l88 268h143z" />
    <glyph glyph-name="Acircumflex" unicode="&#xc2;" horiz-adv-x="1255" 
d="M39 0l491 1317h195l492 -1317h-191l-129 358h-539l-129 -358h-190zM627 1116l-221 -614h444zM414 1561l168 172h92l168 -172v-72l-215 139l-213 -139v72z" />
    <glyph glyph-name="Atilde" unicode="&#xc3;" horiz-adv-x="1255" 
d="M39 0l491 1317h195l492 -1317h-191l-129 358h-539l-129 -358h-190zM627 1116l-221 -614h444zM442 1536l-51 53q77 68 152 68q50 0 114 -31q68 -33 99 -33q28 0 63 27l45 -51q-75 -70 -141 -70q-38 0 -98 31q-77 41 -109 41q-36 0 -74 -35z" />
    <glyph glyph-name="Adieresis" unicode="&#xc4;" horiz-adv-x="1255" 
d="M39 0l491 1317h195l492 -1317h-191l-129 358h-539l-129 -358h-190zM627 1116l-221 -614h444zM664 1589q0 34 25.5 58t60.5 24t60.5 -24t25.5 -58t-25.5 -58t-60.5 -24t-60.5 24t-25.5 58zM420 1589q0 34 25.5 58t60.5 24t60.5 -24t25.5 -58t-25.5 -58t-60.5 -24t-60.5 24
t-25.5 58z" />
    <glyph glyph-name="Aring" unicode="&#xc5;" horiz-adv-x="1255" 
d="M1217 0h-191l-129 358h-539l-129 -358h-190l491 1317h195zM406 502h444l-223 614zM772 1642q0 -60 -42.5 -102.5t-102.5 -42.5q-59 0 -101.5 42.5t-42.5 102.5t42.5 103t101.5 43q60 0 102.5 -43t42.5 -103zM627 1712q-26 0 -45 -20.5t-19 -49.5t19 -49t45 -20
q28 0 46.5 20t18.5 49t-18.5 49.5t-46.5 20.5z" />
    <glyph glyph-name="AE" unicode="&#xc6;" horiz-adv-x="1777" 
d="M39 0l491 1317h1172v-148h-690v-413h620v-148h-620v-461h690v-147h-866v358h-478l-129 -358h-190zM406 502h430v667h-191z" />
    <glyph glyph-name="Ccedilla" unicode="&#xc7;" horiz-adv-x="1183" 
d="M561 -4q-214 45 -341.5 223.5t-127.5 442.5q0 301 165.5 488t430.5 189q275 0 442 -211l-96 -108q-132 174 -338 174q-191 0 -303 -144t-112 -388q0 -246 112 -390.5t303 -144.5q204 0 338 176l96 -108q-92 -116 -204.5 -163.5t-268.5 -47.5l-24 -72q68 -20 112 -73
t33 -132q-9 -69 -59.5 -112t-128.5 -44q-84 0 -160 62l41 65q56 -36 109 -36q42 2 70 25t32 61q8 54 -35.5 89t-105.5 42z" />
    <glyph glyph-name="Egrave" unicode="&#xc8;" horiz-adv-x="1077" 
d="M313 147h691v-147h-867v1317h867v-148h-691v-413h621v-148h-621v-461zM565 1495l-121 268h144l88 -268h-111z" />
    <glyph glyph-name="Eacute" unicode="&#xc9;" horiz-adv-x="1077" 
d="M313 147h691v-147h-867v1317h867v-148h-691v-413h621v-148h-621v-461zM586 1495h-111l90 268h144z" />
    <glyph glyph-name="Ecircumflex" unicode="&#xca;" horiz-adv-x="1077" 
d="M1004 0h-867v1317h867v-148h-691v-413h621v-148h-621v-461h691v-147zM326 1489v72l168 172h92l168 -172v-72l-215 139z" />
    <glyph glyph-name="Edieresis" unicode="&#xcb;" horiz-adv-x="1077" 
d="M1004 0h-867v1317h867v-148h-691v-413h621v-148h-621v-461h691v-147zM457 1507q-35 0 -59.5 24t-24.5 58t24.5 58t59.5 24q36 0 61 -24t25 -58t-25 -58t-61 -24zM700 1507q-35 0 -59.5 24t-24.5 58t24.5 58t59.5 24t60.5 -24t25.5 -58t-25.5 -58t-60.5 -24z" />
    <glyph glyph-name="Igrave" unicode="&#xcc;" horiz-adv-x="450" 
d="M137 1317h176v-1317h-176v1317zM285 1495h-111l-123 268h144z" />
    <glyph glyph-name="Iacute" unicode="&#xcd;" horiz-adv-x="450" 
d="M313 1317v-1317h-176v1317h176zM168 1495l88 268h143l-120 -268h-111z" />
    <glyph glyph-name="Icircumflex" unicode="&#xce;" horiz-adv-x="450" 
d="M137 1317h176v-1317h-176v1317zM180 1733h90l168 -172v-72l-213 139l-213 -139v72z" />
    <glyph glyph-name="Idieresis" unicode="&#xcf;" horiz-adv-x="450" 
d="M313 0h-176v1317h176v-1317zM262 1589q0 34 24.5 58t59.5 24q36 0 61 -24t25 -58t-25 -58t-61 -24q-35 0 -59.5 24t-24.5 58zM188 1589q0 -34 -24.5 -58t-59.5 -24q-36 0 -61 24t-25 58t25 58t61 24q35 0 59.5 -24t24.5 -58z" />
    <glyph glyph-name="Eth" unicode="&#xd0;" horiz-adv-x="1302" 
d="M137 725h-139v137h139v455h477q270 0 433 -182.5t163 -477.5q0 -193 -73 -342t-208.5 -232t-314.5 -83h-477v725zM313 1169v-307h271v-137h-271v-578h293q193 0 305.5 136.5t112.5 373.5t-112.5 374.5t-305.5 137.5h-293z" />
    <glyph glyph-name="Ntilde" unicode="&#xd1;" horiz-adv-x="1355" 
d="M137 0v1317h189l714 -1036v1036h179v-1317h-189l-717 1036v-1036h-176zM518 1536l-49 53q74 68 149 68q51 0 115 -31q4 -2 19.5 -9.5t21.5 -9.5t17.5 -6.5t21 -6t18.5 -1.5q29 0 64 27l45 -51q-75 -70 -141 -70q-35 0 -99 31q-77 41 -108 41q-36 0 -74 -35z" />
    <glyph glyph-name="Ograve" unicode="&#xd2;" horiz-adv-x="1302" 
d="M651 1339q170 0 297 -87t193.5 -240t66.5 -350t-66.5 -350.5t-193.5 -240.5t-297 -87t-297 87t-193.5 240.5t-66.5 350.5t66.5 350t193.5 240t297 87zM651 1194q-166 0 -267 -139t-101 -393q0 -255 101 -395t267 -140t267.5 140t101.5 395q0 254 -101.5 393t-267.5 139z
M629 1495l-123 268h143l90 -268h-110z" />
    <glyph glyph-name="Oacute" unicode="&#xd3;" horiz-adv-x="1302" 
d="M1208 662q0 -197 -66.5 -350.5t-193.5 -240.5t-297 -87t-297 87t-193.5 240.5t-66.5 350.5t66.5 350t193.5 240t297 87t297 -87t193.5 -240t66.5 -350zM651 1194q-166 0 -267 -139t-101 -393q0 -255 101 -395t267 -140t267.5 140t101.5 395q0 254 -101.5 393t-267.5 139z
M680 1495h-111l90 268h144z" />
    <glyph glyph-name="Ocircumflex" unicode="&#xd4;" horiz-adv-x="1302" 
d="M651 1339q170 0 297 -87t193.5 -240t66.5 -350t-66.5 -350.5t-193.5 -240.5t-297 -87t-297 87t-193.5 240.5t-66.5 350.5t66.5 350t193.5 240t297 87zM651 1194q-166 0 -267 -139t-101 -393q0 -255 101 -395t267 -140t267.5 140t101.5 395q0 254 -101.5 393t-267.5 139z
M438 1561l168 172h90l168 -172v-72l-213 139l-213 -139v72z" />
    <glyph glyph-name="Otilde" unicode="&#xd5;" horiz-adv-x="1302" 
d="M94 662q0 197 66.5 350t193.5 240t297 87t297 -87t193.5 -240t66.5 -350t-66.5 -350.5t-193.5 -240.5t-297 -87t-297 87t-193.5 240.5t-66.5 350.5zM651 1194q-166 0 -267 -139t-101 -393q0 -255 101 -395t267 -140t267.5 140t101.5 395q0 254 -101.5 393t-267.5 139z
M416 1589q77 68 149 68q51 0 115 -31q72 -33 98 -33q34 0 64 27l45 -51q-73 -70 -139 -70q-39 0 -99 31q-80 41 -108 41q-38 0 -76 -35z" />
    <glyph glyph-name="Odieresis" unicode="&#xd6;" horiz-adv-x="1302" 
d="M651 1339q170 0 297 -87t193.5 -240t66.5 -350t-66.5 -350.5t-193.5 -240.5t-297 -87t-297 87t-193.5 240.5t-66.5 350.5t66.5 350t193.5 240t297 87zM283 662q0 -255 101 -395t267 -140t267.5 140t101.5 395q0 254 -101.5 393t-267.5 139t-267 -139t-101 -393zM528 1507
q-35 0 -59.5 24t-24.5 58t24.5 58t59.5 24q36 0 61 -24t25 -58t-25 -58t-61 -24zM688 1589q0 34 24.5 58t59.5 24t60.5 -24t25.5 -58t-25.5 -58t-60.5 -24t-59.5 24t-24.5 58z" />
    <glyph glyph-name="multiply" unicode="&#xd7;" horiz-adv-x="1005" 
d="M119 227l291 287l-297 295l92 94l299 -297l291 289l92 -92l-291 -289l297 -295l-92 -94l-297 297l-293 -289z" />
    <glyph glyph-name="Oslash" unicode="&#xd8;" horiz-adv-x="1302" 
d="M94 662q0 197 66.5 350t193.5 240t297 87q106 0 193 -34l55 139h164l-92 -213q114 -85 175.5 -232.5t61.5 -336.5q0 -197 -66.5 -350.5t-193.5 -240.5t-297 -87q-111 0 -190 32l-58 -139h-163l92 211q-113 87 -175.5 236t-62.5 338zM283 662q0 -129 36 -230t101 -162
l358 899q-61 25 -127 25q-166 0 -267 -139t-101 -393zM526 154q62 -27 125 -27q166 0 267.5 140t101.5 395q0 127 -36.5 225.5t-102.5 154.5z" />
    <glyph glyph-name="Ugrave" unicode="&#xd9;" horiz-adv-x="1288" 
d="M313 477q0 -101 28.5 -172.5t78 -108.5t103.5 -53t118 -16q51 0 96 9t89.5 33.5t76.5 62.5t52 101t20 144v840h176v-842q0 -160 -67.5 -272.5t-180.5 -165.5t-262 -53q-227 0 -365.5 126t-138.5 365v842h176v-840zM621 1495l-121 268h143l88 -268h-110z" />
    <glyph glyph-name="Uacute" unicode="&#xda;" horiz-adv-x="1288" 
d="M313 1317v-840q0 -101 28.5 -172.5t78 -108.5t103.5 -53t118 -16q51 0 96 9t89.5 33.5t76.5 62.5t52 101t20 144v840h176v-842q0 -160 -67.5 -272.5t-180.5 -165.5t-262 -53q-227 0 -365.5 126t-138.5 365v842h176zM569 1495l88 268h144l-121 -268h-111z" />
    <glyph glyph-name="Ucircumflex" unicode="&#xdb;" horiz-adv-x="1288" 
d="M313 477q0 -101 28.5 -172.5t78 -108.5t103.5 -53t118 -16q51 0 96 9t89.5 33.5t76.5 62.5t52 101t20 144v840h176v-842q0 -160 -67.5 -272.5t-180.5 -165.5t-262 -53q-227 0 -365.5 126t-138.5 365v842h176v-840zM643 1628l-213 -139v72l168 172h92l168 -172v-72z" />
    <glyph glyph-name="Udieresis" unicode="&#xdc;" horiz-adv-x="1288" 
d="M137 475v842h176v-840q0 -101 28.5 -172.5t78 -108.5t103.5 -53t118 -16q51 0 96 9t89.5 33.5t76.5 62.5t52 101t20 144v840h176v-842q0 -160 -67.5 -272.5t-180.5 -165.5t-262 -53q-227 0 -365.5 126t-138.5 365zM766 1507q-35 0 -60.5 24t-25.5 58t25.5 58t60.5 24
t60.5 -24t25.5 -58t-25.5 -58t-60.5 -24zM436 1589q0 34 25.5 58t60.5 24t60.5 -24t25.5 -58t-25.5 -58t-60.5 -24t-60.5 24t-25.5 58z" />
    <glyph glyph-name="Yacute" unicode="&#xdd;" horiz-adv-x="1173" 
d="M500 0v469l-459 848h195l352 -674l350 674h195l-457 -848v-469h-176zM496 1495l90 268h143l-123 -268h-110z" />
    <glyph glyph-name="Thorn" unicode="&#xde;" horiz-adv-x="1163" 
d="M305 1094h389q76 0 145.5 -25.5t127 -75t91.5 -131t34 -184.5t-34 -184.5t-91.5 -131t-127 -75t-145.5 -25.5h-389v-262h-168v1317h168v-223zM305 403h367q108 0 179 77.5t71 197.5q0 119 -71 195.5t-179 76.5h-367v-547z" />
    <glyph glyph-name="germandbls" unicode="&#xdf;" horiz-adv-x="1120" 
d="M305 811v-934h-168v938q0 502 428 502q200 0 311 -92.5t111 -239.5q0 -123 -66.5 -204t-160.5 -109q299 -64 299 -320q0 -171 -142 -261.5t-407 -88.5v141q82 0 149 11t122.5 35.5t86.5 69.5t31 106q0 122 -100 172.5t-287 50.5v149q157 0 236 67.5t79 168.5
q0 102 -70 151.5t-190 49.5q-58 0 -102 -16t-82 -54.5t-58 -112t-20 -180.5z" />
    <glyph glyph-name="agrave" unicode="&#xe0;" horiz-adv-x="1118" 
d="M528 -16q-200 0 -317 142.5t-117 375.5q0 232 117 375t317 143q185 0 289 -129v113h170v-1004h-170v111q-103 -127 -289 -127zM559 887q-129 0 -209 -103t-80 -282q0 -181 80 -284t209 -103q85 0 151 41t107 114v463q-41 72 -107 113t-151 41zM442 1479h144l90 -269h-111
z" />
    <glyph glyph-name="aacute" unicode="&#xe1;" horiz-adv-x="1118" 
d="M528 -16q-200 0 -317 142.5t-117 375.5q0 232 117 375t317 143q185 0 289 -129v113h170v-1004h-170v111q-103 -127 -289 -127zM559 887q-129 0 -209 -103t-80 -282q0 -181 80 -284t209 -103q85 0 151 41t107 114v463q-41 72 -107 113t-151 41zM508 1210l90 269h143
l-123 -269h-110z" />
    <glyph glyph-name="acircumflex" unicode="&#xe2;" horiz-adv-x="1118" 
d="M94 502q0 232 117 375t317 143q185 0 289 -129v113h170v-1004h-170v111q-103 -127 -289 -127q-200 0 -317 142.5t-117 375.5zM559 887q-129 0 -209 -103t-80 -282q0 -181 80 -284t209 -103q85 0 151 41t107 114v463q-41 72 -107 113t-151 41zM391 1192v78l168 166h92
l168 -166v-78l-213 133z" />
    <glyph glyph-name="atilde" unicode="&#xe3;" horiz-adv-x="1118" 
d="M528 -16q-200 0 -317 142.5t-117 375.5q0 232 117 375t317 143q185 0 289 -129v113h170v-1004h-170v111q-103 -127 -289 -127zM559 887q-129 0 -209 -103t-80 -282q0 -181 80 -284t209 -103q85 0 151 41t107 114v463q-41 72 -107 113t-151 41zM342 1325q76 70 154 70
q51 0 118 -31q5 -2 22 -10.5t25.5 -12t22 -7t25.5 -3.5q31 0 59 25l45 -51q-71 -68 -139 -68q-46 0 -111 35q-5 2 -20.5 10t-21 10.5t-17 7t-20 6t-17.5 1.5q-35 0 -76 -35z" />
    <glyph glyph-name="adieresis" unicode="&#xe4;" horiz-adv-x="1118" 
d="M528 -16q-200 0 -317 142.5t-117 375.5q0 232 117 375t317 143q185 0 289 -129v113h170v-1004h-170v111q-103 -127 -289 -127zM559 887q-129 0 -209 -103t-80 -282q0 -181 80 -284t209 -103q85 0 151 41t107 114v463q-41 72 -107 113t-151 41zM657 1325q0 34 25.5 58
t60.5 24t60.5 -24t25.5 -58q0 -35 -25 -58.5t-61 -23.5t-61 23.5t-25 58.5zM463 1243q-36 0 -61 23.5t-25 58.5q0 34 25.5 58t60.5 24t60.5 -24t25.5 -58q0 -35 -25 -58.5t-61 -23.5z" />
    <glyph glyph-name="aring" unicode="&#xe5;" horiz-adv-x="1118" 
d="M817 0v111q-103 -127 -289 -127q-200 0 -317 142.5t-117 375.5q0 232 117 375t317 143q185 0 289 -129v113h170v-1004h-170zM817 270v463q-41 72 -107 113t-151 41q-129 0 -209 -103t-80 -282q0 -181 80 -284t209 -103q85 0 151 41t107 114zM623 1200q-60 0 -102 43
t-42 103t42 102.5t102 42.5t101.5 -42.5t41.5 -102.5t-41.5 -103t-101.5 -43zM623 1415q-26 0 -45 -20.5t-19 -48.5q0 -29 19 -49.5t45 -20.5t44.5 20.5t18.5 49.5q0 28 -18.5 48.5t-44.5 20.5z" />
    <glyph glyph-name="ae" unicode="&#xe6;" horiz-adv-x="1802" 
d="M1671 137q-51 -71 -144.5 -112t-207.5 -41q-216 0 -332 168v-152h-170v111q-103 -127 -289 -127q-200 0 -317 142.5t-117 375.5q0 232 117 375t317 143q185 0 289 -129v113h170v-142q109 158 311 158q102 0 182.5 -36.5t131 -100t76.5 -146.5t26 -180l-2 -76h-686
q0 -95 33.5 -176.5t105.5 -135.5t170 -54q78 0 142.5 30t105.5 86zM559 887q-129 0 -209 -103t-80 -282q0 -181 80 -284t209 -103q85 0 151 41t107 114v463q-41 72 -107 113t-151 41zM1028 596h533q0 130 -69.5 210.5t-191.5 80.5q-120 0 -191.5 -80t-80.5 -211z" />
    <glyph glyph-name="ccedilla" unicode="&#xe7;" horiz-adv-x="950" 
d="M94 502q0 230 128.5 374t338.5 144q110 0 195.5 -41t140.5 -113l-88 -94q-89 115 -238 115q-135 0 -218 -102.5t-83 -282.5q0 -176 83.5 -281.5t217.5 -105.5q148 0 238 116l88 -96q-114 -151 -356 -151l-27 -78q69 -19 114 -73.5t34 -133.5q-9 -70 -60.5 -112
t-128.5 -42q-87 0 -160 62l41 63q53 -37 109 -37q42 2 70 25t32 61q8 56 -35 90t-106 41l20 146q-163 38 -256.5 174t-93.5 332z" />
    <glyph glyph-name="egrave" unicode="&#xe8;" horiz-adv-x="1048" 
d="M956 481h-686q-3 -148 80 -258q84 -108 230 -108q160 0 249 116l86 -94q-52 -71 -144 -112t-208 -41q-212 0 -340.5 143t-128.5 373q0 150 51 266.5t154 185t244 68.5q135 0 230.5 -63.5t140 -166.5t44.5 -233zM547 887q-121 0 -192.5 -79.5t-82.5 -211.5h533
q0 130 -68.5 210.5t-189.5 80.5zM391 1479h144l90 -269h-111z" />
    <glyph glyph-name="eacute" unicode="&#xe9;" horiz-adv-x="1048" 
d="M956 481h-686q-3 -148 80 -258q84 -108 230 -108q160 0 249 116l86 -94q-52 -71 -144 -112t-208 -41q-212 0 -340.5 143t-128.5 373q0 150 51 266.5t154 185t244 68.5q135 0 230.5 -63.5t140 -166.5t44.5 -233zM547 887q-121 0 -192.5 -79.5t-82.5 -211.5h533
q0 130 -68.5 210.5t-189.5 80.5zM553 1210h-111l90 269h144z" />
    <glyph glyph-name="ecircumflex" unicode="&#xea;" horiz-adv-x="1048" 
d="M94 500q0 150 51 266.5t154 185t244 68.5q135 0 230.5 -63.5t140 -166.5t44.5 -233l-2 -76h-686q-3 -148 80 -258q84 -108 230 -108q160 0 249 116l86 -94q-52 -71 -144 -112t-208 -41q-212 0 -340.5 143t-128.5 373zM272 596h533q0 130 -68.5 210.5t-189.5 80.5
t-192.5 -79.5t-82.5 -211.5zM543 1325l-213 -133v78l168 166h90l168 -166v-78z" />
    <glyph glyph-name="edieresis" unicode="&#xeb;" horiz-adv-x="1048" 
d="M94 500q0 150 51 266.5t154 185t244 68.5q135 0 230.5 -63.5t140 -166.5t44.5 -233l-2 -76h-686q-3 -148 80 -258q84 -108 230 -108q160 0 249 116l86 -94q-52 -71 -144 -112t-208 -41q-212 0 -340.5 143t-128.5 373zM547 887q-121 0 -192.5 -79.5t-82.5 -211.5h533
q0 130 -68.5 210.5t-189.5 80.5zM301 1325q0 34 25.5 58t60.5 24t60.5 -24t25.5 -58q0 -35 -25 -58.5t-61 -23.5t-61 23.5t-25 58.5zM666 1243q-35 0 -59.5 23.5t-24.5 58.5q0 34 24.5 58t59.5 24t60.5 -24t25.5 -58q0 -35 -25 -58.5t-61 -23.5z" />
    <glyph glyph-name="igrave" unicode="&#xec;" horiz-adv-x="456" 
d="M143 1004h170v-1004h-170v1004zM291 1210h-111l-123 269h144z" />
    <glyph glyph-name="iacute" unicode="&#xed;" horiz-adv-x="456" 
d="M313 1004v-1004h-170v1004h170zM166 1210l90 269h143l-123 -269h-110z" />
    <glyph glyph-name="icircumflex" unicode="&#xee;" horiz-adv-x="456" 
d="M143 1004h170v-1004h-170v1004zM182 1436h92l168 -166v-78l-215 131l-213 -131v78z" />
    <glyph glyph-name="idieresis" unicode="&#xef;" horiz-adv-x="456" 
d="M143 1004h170v-1004h-170v1004zM88 1407q35 0 60.5 -24t25.5 -58q0 -35 -25 -58.5t-61 -23.5t-61 23.5t-25 58.5q0 34 25.5 58t60.5 24zM369 1243q-37 0 -61.5 23.5t-24.5 58.5q0 34 25 58t61 24q35 0 59.5 -24t24.5 -58q0 -35 -24.5 -58.5t-59.5 -23.5z" />
    <glyph glyph-name="eth" unicode="&#xf0;" horiz-adv-x="1075" 
d="M528 -82q-200 0 -319 132.5t-119 344.5q0 130 42.5 231t133.5 162.5t221 61.5q142 0 240 -82q-46 159 -178 328l-182 -140l-68 84l186 146q-52 66 -100 121l139 104q27 -27 105 -117l153 117l68 -84l-158 -121q287 -384 287 -745q0 -246 -128 -394.5t-323 -148.5z
M254 410q0 -69 15.5 -129t47 -110t85.5 -79t124 -29q118 0 200.5 105.5t82.5 271.5q0 128 -76 222t-207 94q-126 0 -199 -94t-73 -252z" />
    <glyph glyph-name="ntilde" unicode="&#xf1;" horiz-adv-x="1101" 
d="M309 0h-170v1004h170v-156q122 172 328 172q162 0 244 -93.5t82 -254.5v-672h-170v641q0 104 -51 166.5t-156 62.5q-94 0 -165.5 -51t-111.5 -139v-680zM365 1272l-50 53q76 70 154 70q52 0 119 -31q6 -3 22.5 -11t24.5 -11.5t21.5 -7t25.5 -3.5q31 0 59 25l45 -51
q-71 -68 -139 -68q-45 0 -110 35q-5 2 -17.5 8.5t-17.5 9t-15 6.5t-16.5 6t-14.5 3.5t-16 1.5q-34 0 -75 -35z" />
    <glyph glyph-name="ograve" unicode="&#xf2;" 
d="M1004 502q0 -239 -126.5 -378.5t-328.5 -139.5t-328.5 139.5t-126.5 378.5t126.5 378.5t328.5 139.5t328.5 -139.5t126.5 -378.5zM270 502q0 -186 78 -286.5t201 -100.5q125 0 202.5 100.5t77.5 286.5t-77.5 285.5t-202.5 99.5q-124 0 -201.5 -100t-77.5 -285zM403 1479
h144l90 -269h-111z" />
    <glyph glyph-name="oacute" unicode="&#xf3;" 
d="M1004 502q0 -239 -126.5 -378.5t-328.5 -139.5t-328.5 139.5t-126.5 378.5t126.5 378.5t328.5 139.5t328.5 -139.5t126.5 -378.5zM549 887q-124 0 -201.5 -100t-77.5 -285q0 -186 78 -286.5t201 -100.5q125 0 202.5 100.5t77.5 286.5t-77.5 285.5t-202.5 99.5zM465 1210
l90 269h143l-123 -269h-110z" />
    <glyph glyph-name="ocircumflex" unicode="&#xf4;" 
d="M1004 502q0 -239 -126.5 -378.5t-328.5 -139.5t-328.5 139.5t-126.5 378.5t126.5 378.5t328.5 139.5t328.5 -139.5t126.5 -378.5zM549 887q-124 0 -201.5 -100t-77.5 -285q0 -186 78 -286.5t201 -100.5q125 0 202.5 100.5t77.5 286.5t-77.5 285.5t-202.5 99.5zM549 1325
l-213 -133v78l168 166h92l168 -166v-78z" />
    <glyph glyph-name="otilde" unicode="&#xf5;" 
d="M549 -16q-202 0 -328.5 139.5t-126.5 378.5t126.5 378.5t328.5 139.5t328.5 -139.5t126.5 -378.5t-126.5 -378.5t-328.5 -139.5zM270 502q0 -186 78 -286.5t201 -100.5q125 0 202.5 100.5t77.5 286.5t-77.5 285.5t-202.5 99.5q-124 0 -201.5 -100t-77.5 -285zM313 1325
q76 70 156 70q50 0 117 -31q5 -2 22.5 -10.5t25.5 -12t21.5 -7t24.5 -3.5q34 0 59 25l45 -51q-68 -68 -137 -68q-47 0 -112 35q-5 2 -17.5 8.5t-17.5 9t-15 6.5t-16.5 6t-14.5 3.5t-16 1.5q-35 0 -73 -35z" />
    <glyph glyph-name="odieresis" unicode="&#xf6;" 
d="M1004 502q0 -239 -126.5 -378.5t-328.5 -139.5t-328.5 139.5t-126.5 378.5t126.5 378.5t328.5 139.5t328.5 -139.5t126.5 -378.5zM270 502q0 -186 78 -286.5t201 -100.5q125 0 202.5 100.5t77.5 286.5t-77.5 285.5t-202.5 99.5q-124 0 -201.5 -100t-77.5 -285zM410 1243
q-36 0 -61 23.5t-25 58.5q0 34 25.5 58t60.5 24t60.5 -24t25.5 -58q0 -35 -25 -58.5t-61 -23.5zM604 1325q0 34 24.5 58t59.5 24q36 0 61 -24t25 -58q0 -35 -24.5 -58.5t-61.5 -23.5q-35 0 -59.5 23.5t-24.5 58.5z" />
    <glyph glyph-name="divide" unicode="&#xf7;" horiz-adv-x="1056" 
d="M950 709v-109h-844v109h844zM528 940q-39 0 -66.5 26t-27.5 64q0 37 28 63.5t66 26.5q40 0 68.5 -26.5t28.5 -63.5q0 -38 -28.5 -64t-68.5 -26zM528 164q-38 0 -66 26.5t-28 63.5t28 63.5t66 26.5q40 0 68.5 -26.5t28.5 -63.5t-28.5 -63.5t-68.5 -26.5z" />
    <glyph glyph-name="oslash" unicode="&#xf8;" 
d="M63 -14l132 168q-101 138 -101 348q0 239 126.5 378.5t328.5 139.5q147 0 260 -86l61 78h166l-131 -164q99 -138 99 -346q0 -239 -126.5 -378.5t-328.5 -139.5q-149 0 -256 84l-64 -82h-166zM270 502q0 -116 49 -197l398 516q-69 66 -168 66q-124 0 -201.5 -100
t-77.5 -285zM383 180q68 -65 166 -65q125 0 202.5 100.5t77.5 286.5q0 113 -49 194z" />
    <glyph glyph-name="ugrave" unicode="&#xf9;" 
d="M309 1004v-644q0 -105 49 -167t154 -62q159 0 276 133v740h170v-1004h-170v121q-134 -137 -327 -137q-162 0 -242 92.5t-80 253.5v674h170zM412 1479h143l90 -269h-110z" />
    <glyph glyph-name="uacute" unicode="&#xfa;" 
d="M309 1004v-644q0 -105 49 -167t154 -62q159 0 276 133v740h170v-1004h-170v121q-134 -137 -327 -137q-162 0 -242 92.5t-80 253.5v674h170zM459 1210l90 269h143l-123 -269h-110z" />
    <glyph glyph-name="ucircumflex" unicode="&#xfb;" 
d="M139 1004h170v-644q0 -105 49 -167t154 -62q159 0 276 133v740h170v-1004h-170v121q-134 -137 -327 -137q-162 0 -242 92.5t-80 253.5v674zM336 1270l168 166h90l168 -166v-78l-213 133l-213 -133v78z" />
    <glyph glyph-name="udieresis" unicode="&#xfc;" 
d="M139 1004h170v-644q0 -105 49 -167t154 -62q159 0 276 133v740h170v-1004h-170v121q-134 -137 -327 -137q-162 0 -242 92.5t-80 253.5v674zM602 1325q0 34 25.5 58t60.5 24t60.5 -24t25.5 -58q0 -35 -25 -58.5t-61 -23.5t-61 23.5t-25 58.5zM410 1243q-36 0 -61 23.5
t-25 58.5q0 34 25.5 58t60.5 24t60.5 -24t25.5 -58q0 -35 -25 -58.5t-61 -23.5z" />
    <glyph glyph-name="yacute" unicode="&#xfd;" horiz-adv-x="1009" 
d="M119 -285q57 0 96 10.5t76.5 40.5t66.5 87t56 147l-361 1004h178l275 -824l270 824h178l-358 -1004q-20 -55 -32.5 -87t-32 -76t-34.5 -69t-38 -57.5t-45.5 -50t-53.5 -37.5t-66 -29t-79 -15.5t-96 -6.5v143zM428 1210l90 269h144l-123 -269h-111z" />
    <glyph glyph-name="thorn" unicode="&#xfe;" horiz-adv-x="1120" 
d="M305 84v-498h-168v1735h168v-414q111 111 287 111q196 0 311 -141.5t115 -374.5q0 -234 -120.5 -376t-324.5 -142q-160 0 -268 100zM305 766v-530q84 -121 242 -121q141 0 221 104t80 283q0 176 -80 279.5t-219 103.5q-75 0 -140.5 -32t-103.5 -87z" />
    <glyph glyph-name="ydieresis" unicode="&#xff;" horiz-adv-x="1009" 
d="M119 -428v143q57 0 96 10.5t76.5 40.5t66.5 87t56 147l-361 1004h178l275 -824l270 824h178l-358 -1004q-20 -55 -32.5 -87t-32 -76t-34.5 -69t-38 -57.5t-45.5 -50t-53.5 -37.5t-66 -29t-79 -15.5t-96 -6.5zM291 1325q0 34 25.5 58t60.5 24t60.5 -24t25.5 -58
q0 -35 -25 -58.5t-61 -23.5t-61 23.5t-25 58.5zM571 1325q0 34 24.5 58t59.5 24t60.5 -24t25.5 -58q0 -35 -25 -58.5t-61 -23.5q-35 0 -59.5 23.5t-24.5 58.5z" />
    <glyph glyph-name="Amacron" unicode="&#x100;" horiz-adv-x="1255" 
d="M897 358h-539l-129 -358h-190l491 1317h195l492 -1317h-191zM406 502h444l-223 614zM854 1511h-453v115h453v-115z" />
    <glyph glyph-name="amacron" unicode="&#x101;" horiz-adv-x="1118" 
d="M94 502q0 232 117 375t317 143q185 0 289 -129v113h170v-1004h-170v111q-103 -127 -289 -127q-200 0 -317 142.5t-117 375.5zM559 887q-129 0 -209 -103t-80 -282q0 -181 80 -284t209 -103q85 0 151 41t107 114v463q-41 72 -107 113t-151 41zM819 1251h-452v117h452v-117
z" />
    <glyph glyph-name="Abreve" unicode="&#x102;" horiz-adv-x="1255" 
d="M897 358h-539l-129 -358h-190l491 1317h195l492 -1317h-191zM627 1116l-221 -614h444zM401 1683h127q5 -44 30.5 -69t68.5 -25t69 25t31 69h127q-7 -87 -70.5 -140.5t-156.5 -53.5q-92 0 -155.5 53.5t-70.5 140.5z" />
    <glyph glyph-name="abreve" unicode="&#x103;" horiz-adv-x="1118" 
d="M528 -16q-200 0 -317 142.5t-117 375.5q0 232 117 375t317 143q185 0 289 -129v113h170v-1004h-170v111q-103 -127 -289 -127zM559 887q-129 0 -209 -103t-80 -282q0 -181 80 -284t209 -103q85 0 151 41t107 114v463q-41 72 -107 113t-151 41zM594 1245q-93 0 -156.5 54
t-70.5 141h127q5 -44 31 -69t69 -25t68 25t30 69h127q-7 -87 -69.5 -141t-155.5 -54z" />
    <glyph glyph-name="Aogonek" unicode="&#x104;" horiz-adv-x="1255" 
d="M39 0l491 1317h195l492 -1317h-37q-3 -29 -23.5 -62t-44 -57t-42.5 -54.5t-19 -57.5q0 -29 21.5 -48.5t55.5 -19.5q55 0 103 59l57 -69q-78 -78 -172 -78q-75 0 -120.5 47.5t-45.5 110.5q0 40 20.5 84t46.5 84.5t32 60.5h-23l-129 358h-539l-129 -358h-190zM406 502h444
l-223 614z" />
    <glyph glyph-name="aogonek" unicode="&#x105;" horiz-adv-x="1118" 
d="M528 -16q-200 0 -317 142.5t-117 375.5q0 232 117 375t317 143q185 0 289 -129v113h170v-1004h-29q-2 -36 -33.5 -77t-61 -81t-29.5 -73q0 -28 21 -48t54 -20q58 0 103 59l59 -69q-81 -78 -172 -78q-76 0 -121 47t-45 111q0 41 20 84t48 85t35 60h-19v111
q-103 -127 -289 -127zM270 502q0 -181 80 -284t209 -103q85 0 151 41t107 114v463q-41 72 -107 113t-151 41q-129 0 -209 -103t-80 -282z" />
    <glyph glyph-name="Cacute" unicode="&#x106;" horiz-adv-x="1183" 
d="M696 1194q-191 0 -303 -144t-112 -388q0 -246 112 -390.5t303 -144.5q204 0 338 176l96 -108q-170 -211 -436 -211q-143 0 -258.5 54t-190 147t-114 215t-39.5 262q0 301 165.5 488t430.5 189q275 0 442 -211l-96 -108q-132 174 -338 174zM598 1495l90 268h143l-120 -268
h-113z" />
    <glyph glyph-name="cacute" unicode="&#x107;" horiz-adv-x="950" 
d="M571 887q-135 0 -218 -102.5t-83 -282.5q0 -176 83.5 -281.5t217.5 -105.5q148 0 238 116l88 -96q-115 -151 -336 -151q-210 0 -338.5 144t-128.5 374t128.5 374t338.5 144q110 0 195.5 -41t140.5 -113l-88 -94q-89 115 -238 115zM563 1210h-110l90 269h143z" />
    <glyph glyph-name="Ccircumflex" unicode="&#x108;" horiz-adv-x="1183" 
d="M696 1194q-191 0 -303 -144t-112 -388q0 -246 112 -390.5t303 -144.5q204 0 338 176l96 -108q-170 -211 -436 -211q-143 0 -258.5 54t-190 147t-114 215t-39.5 262q0 301 165.5 488t430.5 189q275 0 442 -211l-96 -108q-132 174 -338 174zM475 1561l168 172h90l168 -172
v-72l-213 139l-213 -139v72z" />
    <glyph glyph-name="ccircumflex" unicode="&#x109;" horiz-adv-x="950" 
d="M571 887q-135 0 -218 -102.5t-83 -282.5q0 -176 83.5 -281.5t217.5 -105.5q148 0 238 116l88 -96q-115 -151 -336 -151q-210 0 -338.5 144t-128.5 374t128.5 374t338.5 144q110 0 195.5 -41t140.5 -113l-88 -94q-89 115 -238 115zM561 1325l-213 -133v78l168 166h90
l168 -166v-78z" />
    <glyph glyph-name="Cdotaccent" unicode="&#x10a;" horiz-adv-x="1183" 
d="M281 662q0 -246 112 -390.5t303 -144.5q204 0 338 176l96 -108q-170 -211 -436 -211q-143 0 -258.5 54t-190 147t-114 215t-39.5 262q0 301 165.5 488t430.5 189q275 0 442 -211l-96 -108q-132 174 -338 174q-191 0 -303 -144t-112 -388zM575 1593q0 43 32.5 74t76.5 31
q45 0 77 -31t32 -74t-31.5 -73.5t-77.5 -30.5q-44 0 -76.5 30.5t-32.5 73.5z" />
    <glyph glyph-name="cdotaccent" unicode="&#x10b;" horiz-adv-x="950" 
d="M571 887q-135 0 -218 -102.5t-83 -282.5q0 -176 83.5 -281.5t217.5 -105.5q148 0 238 116l88 -96q-115 -151 -336 -151q-210 0 -338.5 144t-128.5 374t128.5 374t338.5 144q110 0 195.5 -41t140.5 -113l-88 -94q-89 115 -238 115zM451 1348q0 43 32 73.5t76 30.5
t76.5 -30.5t32.5 -73.5q0 -44 -32 -74.5t-77 -30.5t-76.5 30.5t-31.5 74.5z" />
    <glyph glyph-name="Ccaron" unicode="&#x10c;" horiz-adv-x="1183" 
d="M696 1194q-191 0 -303 -144t-112 -388q0 -246 112 -390.5t303 -144.5q204 0 338 176l96 -108q-170 -211 -436 -211q-143 0 -258.5 54t-190 147t-114 215t-39.5 262q0 301 165.5 488t430.5 189q275 0 442 -211l-96 -108q-132 174 -338 174zM475 1669v80l213 -133l213 133
v-80l-168 -164h-90z" />
    <glyph glyph-name="ccaron" unicode="&#x10d;" horiz-adv-x="950" 
d="M571 887q-135 0 -218 -102.5t-83 -282.5q0 -176 83.5 -281.5t217.5 -105.5q148 0 238 116l88 -96q-115 -151 -336 -151q-210 0 -338.5 144t-128.5 374t128.5 374t338.5 144q110 0 195.5 -41t140.5 -113l-88 -94q-89 115 -238 115zM516 1192l-168 166v78l213 -133l213 133
v-78l-168 -166h-90z" />
    <glyph glyph-name="Dcaron" unicode="&#x10e;" horiz-adv-x="1302" 
d="M1210 657q0 -193 -73 -342t-208.5 -232t-314.5 -83h-477v1317h477q270 0 433 -182.5t163 -477.5zM313 147h293q193 0 305.5 136.5t112.5 373.5t-112.5 374.5t-305.5 137.5h-293v-1022zM846 1749v-80l-168 -164h-92l-168 164v80l213 -133z" />
    <glyph glyph-name="dcaron" unicode="&#x10f;" horiz-adv-x="1429" 
d="M528 -16q-200 0 -317 142.5t-117 375.5q0 232 117 375t317 143q185 0 289 -129v524h170v-1415h-170v111q-103 -127 -289 -127zM559 887q-129 0 -209 -103t-80 -282q0 -181 80 -284t209 -103q85 0 151 41t107 114v463q-41 72 -107 113t-151 41zM1133 1206l90 269h143
l-123 -269h-110z" />
    <glyph glyph-name="Dcroat" unicode="&#x110;" horiz-adv-x="1302" 
d="M137 725h-139v137h139v455h477q270 0 433 -182.5t163 -477.5q0 -193 -73 -342t-208.5 -232t-314.5 -83h-477v725zM313 1169v-307h271v-137h-271v-578h293q193 0 305.5 136.5t112.5 373.5t-112.5 374.5t-305.5 137.5h-293z" />
    <glyph glyph-name="dcroat" unicode="&#x111;" horiz-adv-x="1118" 
d="M528 -16q-200 0 -317 142.5t-117 375.5q0 232 117 375t317 143q185 0 289 -129v256h-160v117h160v151h170v-151h125v-117h-125v-1147h-170v111q-103 -127 -289 -127zM559 887q-129 0 -209 -103t-80 -282q0 -181 80 -284t209 -103q85 0 151 41t107 114v463
q-41 72 -107 113t-151 41z" />
    <glyph glyph-name="Emacron" unicode="&#x112;" horiz-adv-x="1077" 
d="M934 608h-621v-461h691v-147h-867v1317h867v-148h-691v-413h621v-148zM342 1626h455v-115h-455v115z" />
    <glyph glyph-name="emacron" unicode="&#x113;" horiz-adv-x="1048" 
d="M956 481h-686q-3 -148 80 -258q84 -108 230 -108q160 0 249 116l86 -94q-52 -71 -144 -112t-208 -41q-212 0 -340.5 143t-128.5 373q0 150 51 266.5t154 185t244 68.5q135 0 230.5 -63.5t140 -166.5t44.5 -233zM547 887q-121 0 -192.5 -79.5t-82.5 -211.5h533
q0 130 -68.5 210.5t-189.5 80.5zM315 1251v117h455v-117h-455z" />
    <glyph glyph-name="Ebreve" unicode="&#x114;" horiz-adv-x="1077" 
d="M137 1317h867v-148h-691v-413h621v-148h-621v-461h691v-147h-867v1317zM344 1683h127q5 -44 30 -69t68 -25q44 0 70 25.5t31 68.5h127q-7 -87 -71 -140.5t-157 -53.5q-92 0 -155 53.5t-70 140.5z" />
    <glyph glyph-name="ebreve" unicode="&#x115;" horiz-adv-x="1048" 
d="M94 500q0 150 51 266.5t154 185t244 68.5q135 0 230.5 -63.5t140 -166.5t44.5 -233l-2 -76h-686q-3 -148 80 -258q84 -108 230 -108q160 0 249 116l86 -94q-52 -71 -144 -112t-208 -41q-212 0 -340.5 143t-128.5 373zM272 596h533q0 130 -68.5 210.5t-189.5 80.5
t-192.5 -79.5t-82.5 -211.5zM549 1245q-93 0 -156.5 54t-70.5 141h127q5 -44 31 -69t69 -25t68 25t30 69h127q-7 -87 -69.5 -141t-155.5 -54z" />
    <glyph glyph-name="Edotaccent" unicode="&#x116;" horiz-adv-x="1077" 
d="M1004 1169h-691v-413h621v-148h-621v-461h691v-147h-867v1317h867v-148zM569 1489q-44 0 -76 30.5t-32 73.5t32 74t76 31q46 0 78.5 -31t32.5 -74t-32.5 -73.5t-78.5 -30.5z" />
    <glyph glyph-name="edotaccent" unicode="&#x117;" horiz-adv-x="1048" 
d="M956 481h-686q-3 -148 80 -258q84 -108 230 -108q160 0 249 116l86 -94q-52 -71 -144 -112t-208 -41q-212 0 -340.5 143t-128.5 373q0 150 51 266.5t154 185t244 68.5q135 0 230.5 -63.5t140 -166.5t44.5 -233zM547 887q-121 0 -192.5 -79.5t-82.5 -211.5h533
q0 130 -68.5 210.5t-189.5 80.5zM547 1243q-45 0 -77 30.5t-32 74.5q0 43 32.5 73.5t76.5 30.5t76 -30.5t32 -73.5q0 -44 -31.5 -74.5t-76.5 -30.5z" />
    <glyph glyph-name="Eogonek" unicode="&#x118;" horiz-adv-x="1077" 
d="M764 0h-627v1317h867v-148h-691v-413h621v-148h-621v-461h691v-147h-111q-2 -29 -22.5 -61.5t-43.5 -57t-42 -55t-19 -57.5q0 -28 21.5 -48t54.5 -20q57 0 102 59l60 -69q-81 -78 -173 -78q-76 0 -120.5 47t-44.5 111q0 41 19.5 84t45.5 84.5t33 60.5z" />
    <glyph glyph-name="eogonek" unicode="&#x119;" horiz-adv-x="1048" 
d="M94 500q0 150 51 266.5t154 185t244 68.5q135 0 230.5 -63.5t140 -166.5t44.5 -233l-2 -76h-686q-3 -148 80 -258q84 -108 230 -108q160 0 249 116l86 -94q-45 -64 -122.5 -104t-176.5 -47q-4 -22 -18.5 -46t-32 -44.5t-34.5 -40.5t-28 -42.5t-11 -43.5q0 -28 21 -48
t54 -20q58 0 103 59l59 -69q-81 -78 -172 -78q-76 0 -121 47t-45 111q0 40 15 77.5t45 84t36 57.5q-182 23 -287.5 162t-105.5 348zM272 596h533q0 130 -68.5 210.5t-189.5 80.5t-192.5 -79.5t-82.5 -211.5z" />
    <glyph glyph-name="Ecaron" unicode="&#x11a;" horiz-adv-x="1077" 
d="M1004 0h-867v1317h867v-148h-691v-413h621v-148h-621v-461h691v-147zM356 1669v80l213 -133l215 133v-80l-168 -164h-92z" />
    <glyph glyph-name="ecaron" unicode="&#x11b;" horiz-adv-x="1048" 
d="M94 500q0 150 51 266.5t154 185t244 68.5q135 0 230.5 -63.5t140 -166.5t44.5 -233l-2 -76h-686q-3 -148 80 -258q84 -108 230 -108q160 0 249 116l86 -94q-52 -71 -144 -112t-208 -41q-212 0 -340.5 143t-128.5 373zM272 596h533q0 130 -68.5 210.5t-189.5 80.5
t-192.5 -79.5t-82.5 -211.5zM504 1192l-168 166v78l213 -133l213 133v-78l-168 -166h-90z" />
    <glyph glyph-name="Gcircumflex" unicode="&#x11c;" horiz-adv-x="1282" 
d="M92 662q0 305 165.5 491t430.5 186q275 0 442 -211l-96 -108q-132 174 -336 174q-193 0 -305 -142t-112 -390t111 -391.5t298 -143.5q86 0 169.5 36.5t139.5 96.5v324h-319v147h479v-536q-72 -92 -198 -151.5t-267 -59.5q-143 0 -259 54t-190 147t-113.5 215t-39.5 262z
M459 1561l168 172h90l168 -172v-72l-213 139l-213 -139v72z" />
    <glyph glyph-name="gcircumflex" unicode="&#x11d;" horiz-adv-x="1126" 
d="M817 891v113h170v-965q0 -105 -26 -189t-79 -147t-141 -97.5t-206 -35.5q-110 0 -212.5 37t-170.5 102l69 121q51 -54 134 -86.5t169 -32.5q87 0 146.5 24.5t90.5 69.5t43.5 96.5t12.5 118.5v91q-103 -127 -289 -127q-200 0 -317 142.5t-117 375.5q0 232 117 375t317 143
q185 0 289 -129zM817 270v463q-41 72 -107 113t-151 41q-129 0 -209 -103t-80 -282q0 -181 80 -284t209 -103q85 0 151 41t107 114zM797 1192l-213 133l-215 -133v78l168 166h92l168 -166v-78z" />
    <glyph glyph-name="Gbreve" unicode="&#x11e;" horiz-adv-x="1282" 
d="M92 662q0 305 165.5 491t430.5 186q275 0 442 -211l-96 -108q-132 174 -336 174q-193 0 -305 -142t-112 -390t111 -391.5t298 -143.5q86 0 169.5 36.5t139.5 96.5v324h-319v147h479v-536q-72 -92 -198 -151.5t-267 -59.5q-143 0 -259 54t-190 147t-113.5 215t-39.5 262z
M676 1489q-93 0 -155.5 53.5t-69.5 140.5h127q5 -44 30 -69t68 -25t69 25t31 69h127q-7 -87 -70.5 -140.5t-156.5 -53.5z" />
    <glyph glyph-name="gbreve" unicode="&#x11f;" horiz-adv-x="1126" 
d="M987 1004v-965q0 -105 -26 -189t-79 -147t-141 -97.5t-206 -35.5q-110 0 -212.5 37t-170.5 102l69 121q51 -54 134 -86.5t169 -32.5q87 0 146.5 24.5t90.5 69.5t43.5 96.5t12.5 118.5v91q-103 -127 -289 -127q-200 0 -317 142.5t-117 375.5q0 232 117 375t317 143
q185 0 289 -129v113h170zM817 270v463q-41 72 -107 113t-151 41q-129 0 -209 -103t-80 -282q0 -181 80 -284t209 -103q85 0 151 41t107 114zM565 1346q44 0 70 25.5t29 68.5h127q-7 -87 -70 -141t-156 -54q-92 0 -155 53.5t-72 141.5h127q5 -44 31 -69t69 -25z" />
    <glyph glyph-name="Gdotaccent" unicode="&#x120;" horiz-adv-x="1282" 
d="M92 662q0 305 165.5 491t430.5 186q275 0 442 -211l-96 -108q-132 174 -336 174q-193 0 -305 -142t-112 -390t111 -391.5t298 -143.5q86 0 169.5 36.5t139.5 96.5v324h-319v147h479v-536q-72 -92 -198 -151.5t-267 -59.5q-143 0 -259 54t-190 147t-113.5 215t-39.5 262z
M561 1593q0 43 32.5 74t76.5 31t76 -31t32 -74t-32 -73.5t-76 -30.5t-76.5 30.5t-32.5 73.5z" />
    <glyph glyph-name="gdotaccent" unicode="&#x121;" horiz-adv-x="1126" 
d="M94 502q0 232 117 375t317 143q185 0 289 -129v113h170v-965q0 -105 -26 -189t-79 -147t-141 -97.5t-206 -35.5q-110 0 -212.5 37t-170.5 102l69 121q51 -54 134 -86.5t169 -32.5q87 0 146.5 24.5t90.5 69.5t43.5 96.5t12.5 118.5v91q-103 -127 -289 -127
q-200 0 -317 142.5t-117 375.5zM559 887q-129 0 -209 -103t-80 -282q0 -181 80 -284t209 -103q85 0 151 41t107 114v463q-41 72 -107 113t-151 41zM455 1348q0 43 32 73.5t76 30.5t76.5 -30.5t32.5 -73.5q0 -44 -32 -74.5t-77 -30.5t-76.5 30.5t-31.5 74.5z" />
    <glyph glyph-name="uni0122" unicode="&#x122;" horiz-adv-x="1282" 
d="M92 662q0 305 165.5 491t430.5 186q275 0 442 -211l-96 -108q-132 174 -336 174q-193 0 -305 -142t-112 -390t111 -391.5t298 -143.5q86 0 169.5 36.5t139.5 96.5v324h-319v147h479v-536q-72 -92 -198 -151.5t-267 -59.5q-143 0 -259 54t-190 147t-113.5 215t-39.5 262z
M668 -332h-115l68 281h135z" />
    <glyph glyph-name="uni0123" unicode="&#x123;" horiz-adv-x="1126" 
d="M528 -16q-200 0 -317 142.5t-117 375.5q0 232 117 375t317 143q185 0 289 -129v113h170v-965q0 -105 -26 -189t-79 -147t-141 -97.5t-206 -35.5q-110 0 -212.5 37t-170.5 102l69 121q51 -54 134 -86.5t169 -32.5q87 0 146.5 24.5t90.5 69.5t43.5 96.5t12.5 118.5v91
q-103 -127 -289 -127zM559 887q-129 0 -209 -103t-80 -282q0 -181 80 -284t209 -103q85 0 151 41t107 114v463q-41 72 -107 113t-151 41zM614 1098h-137l68 297h117z" />
    <glyph glyph-name="Hcircumflex" unicode="&#x124;" horiz-adv-x="1304" 
d="M313 0h-176v1317h176v-561h678v561h176v-1317h-176v608h-678v-608zM444 1489v72l168 172h90l168 -172v-72l-213 139z" />
    <glyph glyph-name="hcircumflex" unicode="&#x125;" horiz-adv-x="1101" 
d="M139 0v1415h170v-567q122 172 328 172q162 0 244 -93.5t82 -254.5v-672h-170v641q0 104 -51 166.5t-156 62.5q-94 0 -165.5 -51t-111.5 -139v-680h-170zM6 1495l168 166h92l168 -166v-78l-215 133l-213 -133v78z" />
    <glyph glyph-name="Hbar" unicode="&#x126;" horiz-adv-x="1320" 
d="M61 991v115h84v211h177v-211h677v211h177v-211h84v-115h-84v-991h-177v608h-677v-608h-177v991h-84zM322 756h677v235h-677v-235z" />
    <glyph glyph-name="hbar" unicode="&#x127;" horiz-adv-x="1110" 
d="M147 1147h-133v117h133v151h170v-151h152v-117h-152v-299q122 172 328 172q162 0 244 -93.5t82 -254.5v-672h-170v641q0 104 -51 166.5t-156 62.5q-94 0 -165.5 -51t-111.5 -139v-680h-170v1147z" />
    <glyph glyph-name="Itilde" unicode="&#x128;" horiz-adv-x="450" 
d="M137 1317h176v-1317h-176v1317zM223 1530q-80 41 -108 41q-38 0 -76 -35l-49 53q77 68 149 68q55 0 115 -31q72 -33 98 -33q34 0 64 27l45 -51q-73 -70 -139 -70q-39 0 -99 31z" />
    <glyph glyph-name="itilde" unicode="&#x129;" horiz-adv-x="456" 
d="M313 0h-170v1004h170v-1004zM213 1272q-68 35 -94 35q-38 0 -76 -35l-51 53q76 70 155 70q50 0 117 -31q5 -2 22.5 -10.5t25.5 -12t21.5 -7t24.5 -3.5q35 0 60 25l47 -51q-71 -68 -139 -68q-48 0 -113 35z" />
    <glyph glyph-name="Imacron" unicode="&#x12a;" horiz-adv-x="450" 
d="M137 1317h176v-1317h-176v1317zM453 1681v-116h-455v116h455z" />
    <glyph glyph-name="imacron" unicode="&#x12b;" horiz-adv-x="456" 
d="M143 1004h170v-1004h-170v1004zM455 1368v-117h-455v117h455z" />
    <glyph glyph-name="Iogonek" unicode="&#x12e;" horiz-adv-x="450" 
d="M137 1317h176v-1317h-30q-2 -29 -22.5 -61.5t-43.5 -57t-42 -55t-19 -57.5q0 -28 21 -48t54 -20q58 0 103 59l59 -69q-81 -78 -172 -78q-76 0 -121 47t-47 111q1 40 23 84t49 84t33 61h-21v1317z" />
    <glyph glyph-name="iogonek" unicode="&#x12f;" horiz-adv-x="456" 
d="M143 0v1004h170v-1004h-28q-2 -29 -22.5 -61.5t-43.5 -57t-42 -55t-19 -57.5q0 -28 21 -48t54 -20q58 0 103 59l59 -69q-81 -78 -172 -78q-76 0 -121 47t-45 111q0 40 21.5 84t49 84.5t34.5 60.5h-19zM119 1309q0 43 32 73.5t76 30.5q46 0 77.5 -30.5t31.5 -73.5
t-31.5 -73t-77.5 -30q-44 0 -76 30t-32 73z" />
    <glyph glyph-name="Idotaccent" unicode="&#x130;" horiz-adv-x="450" 
d="M137 1317h176v-1317h-176v1317zM225 1698q44 0 76.5 -31t32.5 -74t-32.5 -73.5t-76.5 -30.5t-76 30.5t-32 73.5t32 74t76 31z" />
    <glyph glyph-name="dotlessi" unicode="&#x131;" horiz-adv-x="456" 
d="M313 0h-170v1004h170v-1004z" />
    <glyph glyph-name="IJ" unicode="&#x132;" horiz-adv-x="1554" 
d="M477 193l96 110q61 -80 149 -128t193 -48q63 0 117.5 16t104.5 53t79 109t29 172v840h178v-842q0 -121 -37.5 -215.5t-104 -154t-155.5 -90.5t-196 -31q-145 0 -261.5 57t-191.5 152zM313 1317v-1317h-176v1317h176z" />
    <glyph glyph-name="Jcircumflex" unicode="&#x134;" horiz-adv-x="1128" 
d="M489 127q63 0 117.5 16t104.5 53t79 109t29 172v840h176v-842q0 -121 -37.5 -215.5t-104 -154t-155 -90.5t-194.5 -31q-146 0 -263 57.5t-190 151.5l96 110q61 -80 148 -128t194 -48zM694 1493v72l168 172h92l168 -172v-72l-213 139z" />
    <glyph glyph-name="jcircumflex" unicode="&#x135;" horiz-adv-x="462" 
d="M150 -41v1045h169v-1055q0 -191 -83 -285t-287 -94v143q67 2 108 18.5t61 51t26 73.5t6 103zM231 1325l-213 -133v78l168 166h90l168 -166v-78z" />
    <glyph glyph-name="uni0136" unicode="&#x136;" horiz-adv-x="1236" 
d="M313 483v-483h-176v1317h176v-612l602 612h203l-526 -543l616 -774h-202l-527 649zM623 -309h-115l67 278h136z" />
    <glyph glyph-name="uni0137" unicode="&#x137;" horiz-adv-x="1052" 
d="M309 543l494 461h203l-457 -431l475 -573h-184l-394 477l-137 -129v-348h-170v1415h170v-872zM426 -309l68 278h135l-88 -278h-115z" />
    <glyph glyph-name="kgreenlandic" unicode="&#x138;" horiz-adv-x="1052" 
d="M309 1004v-461l494 461h203l-457 -431l475 -573h-184l-394 477l-137 -129v-348h-170v1004h170z" />
    <glyph glyph-name="Lacute" unicode="&#x139;" horiz-adv-x="974" 
d="M313 147h594v-147h-770v1317h176v-1170zM209 1495l90 268h143l-120 -268h-113z" />
    <glyph glyph-name="lacute" unicode="&#x13a;" horiz-adv-x="448" 
d="M309 1415v-1415h-170v1415h170zM158 1456l90 268h143l-123 -268h-110z" />
    <glyph glyph-name="uni013B" unicode="&#x13b;" horiz-adv-x="974" 
d="M313 147h594v-147h-770v1317h176v-1170zM492 -332h-115l67 281h136z" />
    <glyph glyph-name="uni013C" unicode="&#x13c;" horiz-adv-x="448" 
d="M309 0h-170v1415h170v-1415zM160 -51h135l-88 -281h-115z" />
    <glyph glyph-name="Lcaron" unicode="&#x13d;" horiz-adv-x="974" 
d="M313 1317v-1170h594v-147h-770v1317h176zM461 1049l90 268h143l-123 -268h-110z" />
    <glyph glyph-name="lcaron" unicode="&#x13e;" horiz-adv-x="765" 
d="M309 1415v-1415h-170v1415h170zM438 1147l88 268h144l-121 -268h-111z" />
    <glyph glyph-name="Ldot" unicode="&#x13f;" horiz-adv-x="974" 
d="M313 1317v-1170h594v-147h-770v1317h176zM492 692q0 46 33.5 78.5t80.5 32.5q49 0 83 -32.5t34 -78.5q0 -45 -34 -76.5t-83 -31.5q-47 0 -80.5 32t-33.5 76z" />
    <glyph glyph-name="ldot" unicode="&#x140;" horiz-adv-x="839" 
d="M309 1415v-1415h-170v1415h170zM473 678q0 46 34 78t83 32q47 0 81 -32t34 -78q0 -44 -34 -76.5t-81 -32.5q-49 0 -83 32t-34 77z" />
    <glyph glyph-name="Lslash" unicode="&#x141;" horiz-adv-x="974" 
d="M137 0v541l-137 -62v137l137 62v639h176v-565l287 127v-138l-287 -127v-467h594v-147h-770z" />
    <glyph glyph-name="lslash" unicode="&#x142;" horiz-adv-x="487" 
d="M160 690v725h168v-647l141 74v-137l-141 -74v-631h-168v553l-140 -74v137z" />
    <glyph glyph-name="Nacute" unicode="&#x143;" horiz-adv-x="1355" 
d="M313 1036v-1036h-176v1317h189l714 -1036v1036h179v-1317h-189zM760 1495h-111l90 268h144z" />
    <glyph glyph-name="nacute" unicode="&#x144;" horiz-adv-x="1101" 
d="M309 1004v-156q122 172 328 172q162 0 244 -93.5t82 -254.5v-672h-170v641q0 104 -51 166.5t-156 62.5q-94 0 -165.5 -51t-111.5 -139v-680h-170v1004h170zM600 1210h-111l91 269h143z" />
    <glyph glyph-name="uni0145" unicode="&#x145;" horiz-adv-x="1355" 
d="M313 1036v-1036h-176v1317h189l714 -1036v1036h179v-1317h-189zM682 -309h-115l68 278h135z" />
    <glyph glyph-name="uni0146" unicode="&#x146;" horiz-adv-x="1101" 
d="M309 1004v-156q122 172 328 172q162 0 244 -93.5t82 -254.5v-672h-170v641q0 104 -51 166.5t-156 62.5q-94 0 -165.5 -51t-111.5 -139v-680h-170v1004h170zM555 -309h-115l68 278h135z" />
    <glyph glyph-name="Ncaron" unicode="&#x147;" horiz-adv-x="1355" 
d="M1030 0l-717 1036v-1036h-176v1317h189l714 -1036v1036h179v-1317h-189zM483 1749l215 -133l213 133v-80l-168 -164h-92l-168 164v80z" />
    <glyph glyph-name="ncaron" unicode="&#x148;" horiz-adv-x="1101" 
d="M309 0h-170v1004h170v-156q122 172 328 172q162 0 244 -93.5t82 -254.5v-672h-170v641q0 104 -51 166.5t-156 62.5q-94 0 -165.5 -51t-111.5 -139v-680zM506 1192l-168 166v78l213 -133l213 133v-78l-168 -166h-90z" />
    <glyph glyph-name="napostrophe" unicode="&#x149;" horiz-adv-x="1241" 
d="M279 1004h170v-156q122 172 327 172q162 0 244 -93.5t82 -254.5v-672h-168v641q0 104 -51.5 166.5t-155.5 62.5q-95 0 -166.5 -51t-111.5 -139v-680h-170v1004zM219 1282l-88 -278h-115l68 278h135z" />
    <glyph glyph-name="Omacron" unicode="&#x14c;" horiz-adv-x="1302" 
d="M651 1339q170 0 297 -87t193.5 -240t66.5 -350t-66.5 -350.5t-193.5 -240.5t-297 -87t-297 87t-193.5 240.5t-66.5 350.5t66.5 350t193.5 240t297 87zM283 662q0 -255 101 -395t267 -140t267.5 140t101.5 395q0 254 -101.5 393t-267.5 139t-267 -139t-101 -393zM879 1511
h-455v115h455v-115z" />
    <glyph glyph-name="omacron" unicode="&#x14d;" 
d="M1004 502q0 -239 -126.5 -378.5t-328.5 -139.5t-328.5 139.5t-126.5 378.5t126.5 378.5t328.5 139.5t328.5 -139.5t126.5 -378.5zM270 502q0 -186 78 -286.5t201 -100.5q125 0 202.5 100.5t77.5 286.5t-77.5 285.5t-202.5 99.5q-124 0 -201.5 -100t-77.5 -285zM322 1368
h454v-117h-454v117z" />
    <glyph glyph-name="Obreve" unicode="&#x14e;" horiz-adv-x="1302" 
d="M1208 662q0 -197 -66.5 -350.5t-193.5 -240.5t-297 -87t-297 87t-193.5 240.5t-66.5 350.5t66.5 350t193.5 240t297 87t297 -87t193.5 -240t66.5 -350zM651 1194q-166 0 -267 -139t-101 -393q0 -255 101 -395t267 -140t267.5 140t101.5 395q0 254 -101.5 393t-267.5 139z
M651 1489q-93 0 -155.5 53.5t-71.5 140.5h127q5 -44 31 -69t69 -25q42 0 68 25.5t31 68.5h129q-9 -87 -72.5 -140.5t-155.5 -53.5z" />
    <glyph glyph-name="obreve" unicode="&#x14f;" 
d="M549 1020q202 0 328.5 -139.5t126.5 -378.5t-126.5 -378.5t-328.5 -139.5t-328.5 139.5t-126.5 378.5t126.5 378.5t328.5 139.5zM270 502q0 -186 78 -286.5t201 -100.5q125 0 202.5 100.5t77.5 286.5t-77.5 285.5t-202.5 99.5q-124 0 -201.5 -100t-77.5 -285zM551 1245
q-93 0 -156.5 54t-70.5 141h127q5 -44 31 -69t69 -25q42 0 67.5 25.5t30.5 68.5h127q-7 -87 -70.5 -141t-154.5 -54z" />
    <glyph glyph-name="Ohungarumlaut" unicode="&#x150;" horiz-adv-x="1302" 
d="M651 1339q170 0 297 -87t193.5 -240t66.5 -350t-66.5 -350.5t-193.5 -240.5t-297 -87t-297 87t-193.5 240.5t-66.5 350.5t66.5 350t193.5 240t297 87zM283 662q0 -255 101 -395t267 -140t267.5 140t101.5 395q0 254 -101.5 393t-267.5 139t-267 -139t-101 -393zM813 1524
h-111l80 268h136zM455 1524l80 268h135l-105 -268h-110z" />
    <glyph glyph-name="ohungarumlaut" unicode="&#x151;" 
d="M1004 502q0 -239 -126.5 -378.5t-328.5 -139.5t-328.5 139.5t-126.5 378.5t126.5 378.5t328.5 139.5t328.5 -139.5t126.5 -378.5zM549 887q-124 0 -201.5 -100t-77.5 -285q0 -186 78 -286.5t201 -100.5q125 0 202.5 100.5t77.5 286.5t-77.5 285.5t-202.5 99.5zM713 1210
h-111l80 269h135zM354 1210l80 269h135l-104 -269h-111z" />
    <glyph glyph-name="OE" unicode="&#x152;" horiz-adv-x="2000" 
d="M94 662q0 111 21.5 211t66.5 185.5t110 148t157 97.5t202 35q269 0 410 -227v205h866v-148h-690v-415h621v-148h-621v-459h690v-147h-866v211q-139 -227 -410 -227q-110 0 -202 35.5t-157 97.5t-110 147.5t-66.5 186t-21.5 211.5zM651 1194q-178 0 -273 -143.5
t-95 -388.5t95.5 -390t272.5 -145q178 0 273.5 145t95.5 390t-95.5 388.5t-273.5 143.5z" />
    <glyph glyph-name="oe" unicode="&#x153;" horiz-adv-x="1781" 
d="M94 502q0 234 122.5 376t332.5 142q126 0 219.5 -57.5t149.5 -159.5q113 217 360 217q102 0 182.5 -36.5t131 -100t76.5 -146.5t26 -180l-2 -76h-686q-3 -76 22 -149q31 -96 109.5 -156.5t177.5 -60.5q159 0 248 116l88 -96q-52 -70 -145.5 -110.5t-207.5 -40.5
q-129 0 -226 58.5t-154 162.5q-54 -105 -147.5 -163t-221.5 -58q-210 0 -332.5 142t-122.5 376zM270 502q0 -179 74.5 -283t204.5 -104t205 104t75 283t-75 282t-205 103t-204.5 -103t-74.5 -282zM1280 887q-120 0 -191.5 -80.5t-80.5 -210.5h532q0 130 -69 210.5t-191 80.5
z" />
    <glyph glyph-name="Racute" unicode="&#x154;" horiz-adv-x="1185" 
d="M313 0h-176v1317h547q81 0 152.5 -25t128 -72t89.5 -123.5t33 -172.5q0 -151 -78.5 -253.5t-205.5 -129.5l336 -541h-197l-315 518h-314v-518zM313 666h336q119 0 189.5 68t70.5 184q0 117 -66.5 184t-180.5 67h-349v-503zM604 1495h-110l90 268h143z" />
    <glyph glyph-name="racute" unicode="&#x155;" horiz-adv-x="722" 
d="M590 877q-103 0 -176 -60t-105 -160v-657h-170v1004h170v-175q41 83 120.5 137t180.5 54q49 0 99 -16l-43 -136q-52 9 -76 9zM307 1210l90 269h144l-123 -269h-111z" />
    <glyph glyph-name="uni0156" unicode="&#x156;" horiz-adv-x="1185" 
d="M313 0h-176v1317h547q81 0 152.5 -25t128 -72t89.5 -123.5t33 -172.5q0 -151 -78.5 -253.5t-205.5 -129.5l336 -541h-197l-315 518h-314v-518zM313 666h336q119 0 189.5 68t70.5 184q0 117 -66.5 184t-180.5 67h-349v-503zM592 -309h-117l68 278h137z" />
    <glyph glyph-name="uni0157" unicode="&#x157;" horiz-adv-x="722" 
d="M139 0v1004h170v-175q41 83 120.5 137t180.5 54q49 0 99 -16l-43 -136q-52 9 -76 9q-103 0 -176 -60t-105 -160v-657h-170zM172 -51h135l-88 -281h-115z" />
    <glyph glyph-name="Rcaron" unicode="&#x158;" horiz-adv-x="1185" 
d="M313 0h-176v1317h547q81 0 152.5 -25t128 -72t89.5 -123.5t33 -172.5q0 -151 -78.5 -253.5t-205.5 -129.5l336 -541h-197l-315 518h-314v-518zM313 666h336q119 0 189.5 68t70.5 184q0 117 -66.5 184t-180.5 67h-349v-503zM547 1505l-168 164v80l213 -133l215 133v-80
l-168 -164h-92z" />
    <glyph glyph-name="rcaron" unicode="&#x159;" horiz-adv-x="722" 
d="M709 1004l-43 -136q-52 9 -76 9q-103 0 -176 -60t-105 -160v-657h-170v1004h170v-175q41 83 120.5 137t180.5 54q49 0 99 -16zM195 1438l213 -133l213 133v-78l-168 -166h-91l-167 166v78z" />
    <glyph glyph-name="Sacute" unicode="&#x15a;" horiz-adv-x="1128" 
d="M106 981q0 159 127.5 258.5t335.5 99.5q151 0 270.5 -58t192.5 -153l-98 -110q-60 80 -150.5 128t-201.5 48q-134 0 -214.5 -58t-80.5 -149q0 -45 25.5 -83t69 -65.5t99.5 -52t118 -48t123.5 -48t117.5 -57t99.5 -70.5t69 -92t25.5 -119q0 -163 -131 -265.5t-344 -102.5
q-164 0 -297.5 57t-210.5 149l94 119q61 -79 170.5 -130.5t233.5 -51.5q140 0 222.5 61.5t82.5 157.5q0 59 -41.5 105.5t-107 77.5t-145.5 60t-160 62.5t-145.5 75t-107 106.5t-41.5 148zM539 1495l90 268h143l-123 -268h-110z" />
    <glyph glyph-name="sacute" unicode="&#x15b;" horiz-adv-x="897" 
d="M657 260q0 41 -30 74t-77.5 56t-105.5 45t-116 48t-105.5 58t-77.5 82t-30 114q0 125 98.5 204t255.5 79q112 0 203 -41t149 -113l-80 -100q-98 121 -258 121q-94 0 -151.5 -42.5t-57.5 -107.5q0 -39 30 -71t78.5 -54.5t107 -44.5t116.5 -48.5t106.5 -58.5t78.5 -82
t30 -112q0 -127 -102 -204.5t-268 -77.5q-128 0 -231 42.5t-163 108.5l78 107q45 -52 125.5 -89.5t171.5 -37.5q105 0 165 41.5t60 103.5zM375 1210l90 269h143l-123 -269h-110z" />
    <glyph glyph-name="Scircumflex" unicode="&#x15c;" horiz-adv-x="1128" 
d="M559 -16q-164 0 -297.5 57t-210.5 149l94 119q61 -79 170.5 -130.5t233.5 -51.5q140 0 222.5 61.5t82.5 157.5q0 59 -41.5 105.5t-107 77.5t-145.5 60t-160 62.5t-145.5 75t-107 106.5t-41.5 148q0 159 127.5 258.5t335.5 99.5q151 0 270.5 -58t192.5 -153l-98 -110
q-60 80 -150.5 128t-201.5 48q-134 0 -214.5 -58t-80.5 -149q0 -45 25.5 -83t69 -65.5t99.5 -52t118 -48t123.5 -48t117.5 -57t99.5 -70.5t69 -92t25.5 -119q0 -163 -131 -265.5t-344 -102.5zM588 1628l-213 -139v72l168 172h92l168 -172v-72z" />
    <glyph glyph-name="scircumflex" unicode="&#x15d;" horiz-adv-x="897" 
d="M451 -16q-128 0 -231 42.5t-163 108.5l78 107q45 -52 125.5 -89.5t171.5 -37.5q105 0 165 41.5t60 103.5q0 41 -30 74t-77.5 56t-105.5 45t-116 48t-105.5 58t-77.5 82t-30 114q0 125 98.5 204t255.5 79q112 0 203 -41t149 -113l-80 -100q-98 121 -258 121
q-94 0 -151.5 -42.5t-57.5 -107.5q0 -39 30 -71t78.5 -54.5t107 -44.5t116.5 -48.5t106.5 -58.5t78.5 -82t30 -112q0 -127 -102 -204.5t-268 -77.5zM254 1270l168 166h92l168 -166v-78l-213 133l-215 -133v78z" />
    <glyph glyph-name="Scedilla" unicode="&#x15e;" horiz-adv-x="1128" 
d="M516 -16q-148 7 -270.5 63.5t-194.5 142.5l94 119q61 -79 170.5 -130.5t233.5 -51.5q140 0 222.5 61.5t82.5 157.5q0 59 -41.5 105.5t-107 77.5t-145.5 60t-160 62.5t-145.5 75t-107 106.5t-41.5 148q0 159 127.5 258.5t335.5 99.5q151 0 270.5 -58t192.5 -153l-98 -110
q-60 80 -150.5 128t-201.5 48q-134 0 -214.5 -58t-80.5 -149q0 -45 25.5 -83t69 -65.5t99.5 -52t118 -48t123.5 -48t117.5 -57t99.5 -70.5t69 -92t25.5 -119q0 -153 -114 -253t-304 -113l-26 -74q68 -19 112.5 -72.5t34.5 -132.5q-11 -69 -61.5 -112t-126.5 -44
q-87 0 -160 62l39 65q56 -36 111 -36q40 2 68 25t34 61q7 54 -36.5 89t-104.5 42z" />
    <glyph glyph-name="scedilla" unicode="&#x15f;" horiz-adv-x="897" 
d="M57 135l78 107q45 -52 125.5 -89.5t171.5 -37.5q105 0 165 41.5t60 103.5q0 41 -30 74t-77.5 56t-105.5 45t-116 48t-105.5 58t-77.5 82t-30 114q0 125 98.5 204t255.5 79q112 0 203 -41t149 -113l-80 -100q-98 121 -258 121q-94 0 -151.5 -42.5t-57.5 -107.5
q0 -39 30 -71t78.5 -54.5t107 -44.5t116.5 -48.5t106.5 -58.5t78.5 -82t30 -112q0 -116 -87.5 -192t-233.5 -88l-25 -74q68 -20 112.5 -73.5t33.5 -131.5q-9 -69 -60 -112t-129 -44q-87 0 -160 62l41 65q56 -36 109 -36q42 2 70 25t32 61q8 54 -35.5 89t-105.5 42l18 127
q-112 7 -201.5 48t-142.5 101z" />
    <glyph glyph-name="Scaron" unicode="&#x160;" horiz-adv-x="1128" 
d="M559 -16q-164 0 -297.5 57t-210.5 149l94 119q61 -79 170.5 -130.5t233.5 -51.5q140 0 222.5 61.5t82.5 157.5q0 59 -41.5 105.5t-107 77.5t-145.5 60t-160 62.5t-145.5 75t-107 106.5t-41.5 148q0 159 127.5 258.5t335.5 99.5q151 0 270.5 -58t192.5 -153l-98 -110
q-60 80 -150.5 128t-201.5 48q-134 0 -214.5 -58t-80.5 -149q0 -45 25.5 -83t69 -65.5t99.5 -52t118 -48t123.5 -48t117.5 -57t99.5 -70.5t69 -92t25.5 -119q0 -163 -131 -265.5t-344 -102.5zM375 1749l213 -133l215 133v-80l-168 -164h-92l-168 164v80z" />
    <glyph glyph-name="scaron" unicode="&#x161;" horiz-adv-x="897" 
d="M451 -16q-128 0 -231 42.5t-163 108.5l78 107q45 -52 125.5 -89.5t171.5 -37.5q105 0 165 41.5t60 103.5q0 41 -30 74t-77.5 56t-105.5 45t-116 48t-105.5 58t-77.5 82t-30 114q0 125 98.5 204t255.5 79q112 0 203 -41t149 -113l-80 -100q-98 121 -258 121
q-94 0 -151.5 -42.5t-57.5 -107.5q0 -39 30 -71t78.5 -54.5t107 -44.5t116.5 -48.5t106.5 -58.5t78.5 -82t30 -112q0 -127 -102 -204.5t-268 -77.5zM254 1436l215 -133l213 133v-78l-168 -166h-92l-168 166v78z" />
    <glyph glyph-name="uni0162" unicode="&#x162;" horiz-adv-x="1130" 
d="M57 1317h1018v-148h-422v-1169h-43l-22 -94q68 -19 112 -73.5t33 -133.5q-9 -70 -60 -112t-128 -42q-87 0 -160 62l41 63q53 -37 109 -37q42 2 70 25t32 61q8 56 -35 90t-106 41l24 150h-43v1169h-420v148z" />
    <glyph glyph-name="uni0163" unicode="&#x163;" horiz-adv-x="702" 
d="M74 866l-2 138h133v239l168 17v-256h217v-138h-217v-540q0 -109 25.5 -156t103.5 -47q69 0 125 37l47 -117q-78 -51 -182 -57l-23 -80q68 -20 113 -74.5t34 -132.5q-11 -70 -61 -112t-127 -42q-87 0 -160 62l39 63q58 -37 111 -37q40 2 69 25t33 61q7 56 -36.5 90
t-104.5 41l20 138q-51 7 -87.5 29t-57 50t-32 69.5t-14.5 77.5t-3 85v567h-131z" />
    <glyph glyph-name="Tcaron" unicode="&#x164;" horiz-adv-x="1130" 
d="M653 0h-176v1169h-420v148h1018v-148h-422v-1169zM520 1505l-168 164v80l213 -133l215 133v-80l-168 -164h-92z" />
    <glyph glyph-name="tcaron" unicode="&#x165;" horiz-adv-x="784" 
d="M205 866h-131v138h131v239l168 17v-256h217v-138h-217v-540q0 -109 25.5 -156t103.5 -47q69 0 125 37l47 -117q-93 -59 -215 -59q-66 0 -114 18.5t-74.5 46.5t-42 72.5t-19.5 84t-4 93.5v567zM631 1206h-111l88 269h144z" />
    <glyph glyph-name="Tbar" unicode="&#x166;" horiz-adv-x="1130" 
d="M338 752h139v417h-420v148h1018v-148h-422v-417h140v-117h-140v-635h-176v635h-139v117z" />
    <glyph glyph-name="tbar" unicode="&#x167;" horiz-adv-x="702" 
d="M74 866l-2 138h133v239l168 17v-256h217v-138h-217v-170h153v-114h-153v-256q0 -109 25.5 -156t103.5 -47q69 0 125 37l47 -117q-93 -59 -215 -59q-66 0 -114 18.5t-74.5 46.5t-42 72.5t-19.5 84t-4 93.5v283h-131v114h131v170h-131z" />
    <glyph glyph-name="Utilde" unicode="&#x168;" horiz-adv-x="1288" 
d="M137 1317h176v-840q0 -101 28.5 -172.5t78 -108.5t103.5 -53t118 -16q51 0 96 9t89.5 33.5t76.5 62.5t52 101t20 144v840h176v-842q0 -160 -67.5 -272.5t-180.5 -165.5t-262 -53q-227 0 -365.5 126t-138.5 365v842zM408 1589q77 68 151 68q53 0 113 -31q72 -33 100 -33
q32 0 62 27l47 -51q-75 -70 -142 -70q-38 0 -98 31q-77 41 -109 41q-35 0 -73 -35z" />
    <glyph glyph-name="utilde" unicode="&#x169;" 
d="M139 1004h170v-644q0 -105 49 -167t154 -62q159 0 276 133v740h170v-1004h-170v121q-134 -137 -327 -137q-162 0 -242 92.5t-80 253.5v674zM313 1325q76 70 154 70q52 0 119 -31q6 -3 22.5 -11t24.5 -11.5t21.5 -7t25.5 -3.5q31 0 59 25l45 -51q-71 -68 -139 -68
q-45 0 -110 35q-5 2 -17.5 8.5t-17.5 9t-15 6.5t-16.5 6t-14.5 3.5t-16 1.5q-35 0 -76 -35z" />
    <glyph glyph-name="Umacron" unicode="&#x16a;" horiz-adv-x="1288" 
d="M313 477q0 -101 28.5 -172.5t78 -108.5t103.5 -53t118 -16q51 0 96 9t89.5 33.5t76.5 62.5t52 101t20 144v840h176v-842q0 -160 -67.5 -272.5t-180.5 -165.5t-262 -53q-227 0 -365.5 126t-138.5 365v842h176v-840zM870 1511h-454v115h454v-115z" />
    <glyph glyph-name="umacron" unicode="&#x16b;" 
d="M309 360q0 -105 49 -167t154 -62q159 0 276 133v740h170v-1004h-170v121q-134 -137 -327 -137q-162 0 -242 92.5t-80 253.5v674h170v-644zM322 1251v117h454v-117h-454z" />
    <glyph glyph-name="Ubreve" unicode="&#x16c;" horiz-adv-x="1288" 
d="M313 1317v-840q0 -101 28.5 -172.5t78 -108.5t103.5 -53t118 -16q51 0 96 9t89.5 33.5t76.5 62.5t52 101t20 144v840h176v-842q0 -160 -67.5 -272.5t-180.5 -165.5t-262 -53q-227 0 -365.5 126t-138.5 365v842h176zM643 1489q-93 0 -155.5 53.5t-69.5 140.5h127
q5 -44 30 -69t68 -25t69 25t31 69h127q-7 -87 -70.5 -140.5t-156.5 -53.5z" />
    <glyph glyph-name="ubreve" unicode="&#x16d;" 
d="M139 1004h170v-644q0 -105 49 -167t154 -62q159 0 276 133v740h170v-1004h-170v121q-134 -137 -327 -137q-162 0 -242 92.5t-80 253.5v674zM322 1440h129q3 -43 29.5 -68.5t68.5 -25.5q43 0 69 25t31 69h127q-9 -88 -72 -141.5t-155 -53.5q-91 0 -154.5 54t-72.5 141z
" />
    <glyph glyph-name="Uring" unicode="&#x16e;" horiz-adv-x="1288" 
d="M137 475v842h176v-840q0 -101 28.5 -172.5t78 -108.5t103.5 -53t118 -16q51 0 96 9t89.5 33.5t76.5 62.5t52 101t20 144v840h176v-842q0 -160 -67.5 -272.5t-180.5 -165.5t-262 -53q-227 0 -365.5 126t-138.5 365zM643 1511q-59 0 -101 43t-42 103q0 61 42 103t101 42
q60 0 102.5 -42t42.5 -103q0 -60 -42.5 -103t-102.5 -43zM580 1657q0 -28 18.5 -48t44.5 -20q28 0 47 20t19 48q0 29 -19 49t-47 20q-26 0 -44.5 -20t-18.5 -49z" />
    <glyph glyph-name="uring" unicode="&#x16f;" 
d="M139 1004h170v-644q0 -105 49 -167t154 -62q159 0 276 133v740h170v-1004h-170v121q-134 -137 -327 -137q-162 0 -242 92.5t-80 253.5v674zM549 1200q-60 0 -101.5 43t-41.5 103t41.5 102.5t101.5 42.5t101.5 -42.5t41.5 -102.5t-41.5 -103t-101.5 -43zM485 1346
q0 -29 19 -49.5t45 -20.5t44.5 20.5t18.5 49.5q0 28 -18.5 48.5t-44.5 20.5t-45 -20.5t-19 -48.5z" />
    <glyph glyph-name="Uhungarumlaut" unicode="&#x170;" horiz-adv-x="1288" 
d="M137 475v842h176v-840q0 -101 28.5 -172.5t78 -108.5t103.5 -53t118 -16q51 0 96 9t89.5 33.5t76.5 62.5t52 101t20 144v840h176v-842q0 -160 -67.5 -272.5t-180.5 -165.5t-262 -53q-227 0 -365.5 126t-138.5 365zM573 1524h-112l82 268h135zM711 1524l80 268h135
l-105 -268h-110z" />
    <glyph glyph-name="uhungarumlaut" unicode="&#x171;" 
d="M139 1004h170v-644q0 -105 49 -167t154 -62q159 0 276 133v740h170v-1004h-170v121q-134 -137 -327 -137q-162 0 -242 92.5t-80 253.5v674zM602 1210l82 269h135l-104 -269h-113zM354 1210l80 269h137l-106 -269h-111z" />
    <glyph glyph-name="Uogonek" unicode="&#x172;" horiz-adv-x="1288" 
d="M313 1317v-840q0 -101 28.5 -172.5t78 -108.5t103.5 -53t118 -16q51 0 96 9t89.5 33.5t76.5 62.5t52 101t20 144v840h176v-842q0 -222 -122.5 -345.5t-323.5 -143.5q-7 -34 -38.5 -73t-59 -75.5t-27.5 -68.5q0 -28 21 -48t54 -20q58 0 103 59l59 -69q-81 -78 -172 -78
q-76 0 -121 47t-45 111q0 39 14 75t45 84.5t35 55.5q-198 21 -317 145t-119 344v842h176z" />
    <glyph glyph-name="uogonek" unicode="&#x173;" 
d="M139 1004h170v-644q0 -105 49 -167t154 -62q159 0 276 133v740h170v-1004h-26q-3 -29 -23.5 -62t-44 -57t-42.5 -54.5t-19 -57.5q0 -28 22 -48t56 -20q54 0 102 59l57 -69q-78 -78 -172 -78q-75 0 -120.5 47.5t-45.5 110.5q0 40 21.5 84t49 84.5t34.5 60.5h-19v121
q-134 -137 -327 -137q-162 0 -242 92.5t-80 253.5v674z" />
    <glyph glyph-name="Wcircumflex" unicode="&#x174;" horiz-adv-x="1990" 
d="M59 1317h193l330 -1081l323 1030h182l322 -1030l330 1081h192l-428 -1317h-186l-322 1024l-319 -1024h-189zM995 1628l-213 -139v72l168 172h92l168 -172v-72z" />
    <glyph glyph-name="wcircumflex" unicode="&#x175;" horiz-adv-x="1642" 
d="M55 1004h178l273 -816l231 816h166l234 -816l270 816h178l-354 -1004h-176l-234 786l-233 -786h-176zM608 1192v78l166 166h92l168 -166v-78l-213 133z" />
    <glyph glyph-name="Ycircumflex" unicode="&#x176;" horiz-adv-x="1173" 
d="M500 0v469l-459 848h195l352 -674l350 674h195l-457 -848v-469h-176zM373 1489v72l168 172h92l168 -172v-72l-213 139z" />
    <glyph glyph-name="ycircumflex" unicode="&#x177;" horiz-adv-x="1009" 
d="M119 -285q57 0 96 10.5t76.5 40.5t66.5 87t56 147l-361 1004h178l275 -824l270 824h178l-358 -1004q-20 -55 -32.5 -87t-32 -76t-34.5 -69t-38 -57.5t-45.5 -50t-53.5 -37.5t-66 -29t-79 -15.5t-96 -6.5v143zM504 1325l-213 -133v78l168 166h92l168 -166v-78z" />
    <glyph glyph-name="Ydieresis" unicode="&#x178;" horiz-adv-x="1173" 
d="M938 1317h195l-457 -848v-469h-176v469l-459 848h195l352 -674zM709 1507q-35 0 -60.5 24t-25.5 58t25.5 58t60.5 24t60.5 -24t25.5 -58t-25.5 -58t-60.5 -24zM381 1589q0 34 24.5 58t59.5 24t60.5 -24t25.5 -58t-25.5 -58t-60.5 -24t-59.5 24t-24.5 58z" />
    <glyph glyph-name="Zacute" unicode="&#x179;" horiz-adv-x="1128" 
d="M803 1169h-709v148h930v-117l-737 -1053h764v-147h-994v117zM539 1763h143l-123 -268h-110z" />
    <glyph glyph-name="zacute" unicode="&#x17a;" horiz-adv-x="917" 
d="M614 866h-505v138h712v-105l-563 -762h576v-137h-783v106zM440 1479h144l-123 -269h-111z" />
    <glyph glyph-name="Zdotaccent" unicode="&#x17b;" horiz-adv-x="1128" 
d="M803 1169h-709v148h930v-117l-737 -1053h764v-147h-994v117zM674 1593q0 -43 -32.5 -73.5t-76.5 -30.5q-45 0 -76.5 30.5t-31.5 73.5t31.5 74t76.5 31q44 0 76.5 -31t32.5 -74z" />
    <glyph glyph-name="zdotaccent" unicode="&#x17c;" horiz-adv-x="917" 
d="M614 866h-505v138h712v-105l-563 -762h576v-137h-783v106zM567 1348q0 -44 -31.5 -74.5t-76.5 -30.5t-77 30.5t-32 74.5q0 43 32.5 73.5t76.5 30.5t76 -30.5t32 -73.5z" />
    <glyph glyph-name="Zcaron" unicode="&#x17d;" horiz-adv-x="1128" 
d="M803 1169h-709v148h930v-117l-737 -1053h764v-147h-994v117zM360 1669v80l215 -133l213 133v-80l-167 -164h-93z" />
    <glyph glyph-name="zcaron" unicode="&#x17e;" horiz-adv-x="917" 
d="M614 866h-505v138h712v-105l-563 -762h576v-137h-783v106zM418 1192l-168 166v78l213 -133l213 133v-78l-166 -166h-92z" />
    <glyph glyph-name="longs" unicode="&#x17f;" horiz-adv-x="675" 
d="M373 1018v-1018h-168v1012q0 327 284 327q104 0 199 -45l-39 -112q-60 24 -127 24q-83 0 -116 -50t-33 -138z" />
    <glyph glyph-name="florin" unicode="&#x192;" horiz-adv-x="675" 
d="M-131 -217l41 113q62 -23 127 -23q70 0 106 39q25 24 35 57.5t12 91.5l25 805h-127v138h131l6 112q3 76 18.5 133t47.5 102t87 69.5t132 25.5q105 0 205 -47l-41 -113q-63 25 -127 25q-83 0 -116 -49.5t-38 -139.5l-4 -118h227v-138h-231l-27 -798q-5 -158 -72 -244
t-218 -86q-95 0 -199 45z" />
    <glyph glyph-name="uni0218" unicode="&#x218;" horiz-adv-x="1128" 
d="M106 981q0 159 127.5 258.5t335.5 99.5q151 0 270.5 -58t192.5 -153l-98 -110q-60 80 -150.5 128t-201.5 48q-134 0 -214.5 -58t-80.5 -149q0 -45 25.5 -83t69 -65.5t99.5 -52t118 -48t123.5 -48t117.5 -57t99.5 -70.5t69 -92t25.5 -119q0 -163 -131 -265.5t-344 -102.5
q-164 0 -297.5 57t-210.5 149l94 119q61 -79 170.5 -130.5t233.5 -51.5q140 0 222.5 61.5t82.5 157.5q0 59 -41.5 105.5t-107 77.5t-145.5 60t-160 62.5t-145.5 75t-107 106.5t-41.5 148zM438 -332l70 281h135l-88 -281h-117z" />
    <glyph glyph-name="uni0219" unicode="&#x219;" horiz-adv-x="897" 
d="M657 260q0 41 -30 74t-77.5 56t-105.5 45t-116 48t-105.5 58t-77.5 82t-30 114q0 125 98.5 204t255.5 79q112 0 203 -41t149 -113l-80 -100q-98 121 -258 121q-94 0 -151.5 -42.5t-57.5 -107.5q0 -39 30 -71t78.5 -54.5t107 -44.5t116.5 -48.5t106.5 -58.5t78.5 -82
t30 -112q0 -127 -102 -204.5t-268 -77.5q-128 0 -231 42.5t-163 108.5l78 107q45 -52 125.5 -89.5t171.5 -37.5q105 0 165 41.5t60 103.5zM340 -332l68 281h135l-88 -281h-115z" />
    <glyph glyph-name="uni021A" unicode="&#x21a;" horiz-adv-x="1130" 
d="M477 0v1169h-420v148h1018v-148h-422v-1169h-176zM438 -332l68 281h135l-86 -281h-117z" />
    <glyph glyph-name="uni021B" unicode="&#x21b;" horiz-adv-x="702" 
d="M74 1004h131v239l168 17v-256h217v-138h-217v-540q0 -109 25.5 -156t103.5 -47q69 0 125 37l47 -117q-93 -59 -215 -59q-66 0 -114 18.5t-74.5 46.5t-42 72.5t-19.5 84t-4 93.5v567h-131v138zM301 -332l68 281h135l-88 -281h-115z" />
    <glyph glyph-name="uni0237" unicode="&#x237;" horiz-adv-x="462" 
d="M150 1004h169v-1055q0 -94 -18 -161t-60 -117t-114.5 -74.5t-177.5 -24.5v143q67 2 108 18t61 51t26 73.5t6 103.5v1043z" />
    <glyph glyph-name="circumflex" unicode="&#x2c6;" horiz-adv-x="598" 
d="M86 1270l168 166h90l168 -166v-78l-213 133l-213 -133v78z" />
    <glyph glyph-name="caron" unicode="&#x2c7;" horiz-adv-x="598" 
d="M86 1436l213 -133l213 133v-78l-168 -166h-90l-168 166v78z" />
    <glyph glyph-name="uni02C9" unicode="&#x2c9;" horiz-adv-x="618" 
d="M532 1243h-446v117h446v-117z" />
    <glyph glyph-name="breve" unicode="&#x2d8;" horiz-adv-x="622" 
d="M539 1440q-7 -87 -71 -141t-157 -54q-91 0 -154.5 54t-70.5 141h127q5 -43 30.5 -68.5t67.5 -25.5q44 0 70 25.5t31 68.5h127z" />
    <glyph glyph-name="dotaccent" unicode="&#x2d9;" horiz-adv-x="436" 
d="M109 1348q0 43 32 73.5t76 30.5q46 0 78.5 -30.5t32.5 -73.5q0 -44 -32.5 -74.5t-78.5 -30.5q-45 0 -76.5 30.5t-31.5 74.5z" />
    <glyph glyph-name="ring" unicode="&#x2da;" horiz-adv-x="505" 
d="M252 1491q60 0 102.5 -42.5t42.5 -102.5t-42.5 -103t-102.5 -43q-59 0 -101 43t-42 103t42 102.5t101 42.5zM252 1415q-26 0 -45 -20.5t-19 -48.5q0 -29 19 -49.5t45 -20.5q28 0 46.5 20.5t18.5 49.5q0 28 -19 48.5t-46 20.5z" />
    <glyph glyph-name="ogonek" unicode="&#x2db;" horiz-adv-x="509" 
d="M313 2q-1 -29 -21.5 -62t-43.5 -57.5t-42.5 -55.5t-19.5 -58q0 -28 21.5 -48t54.5 -20q58 0 103 59l59 -69q-81 -78 -172 -78q-76 0 -121 47t-45 111q0 41 20 85t46.5 85.5t33.5 60.5h127z" />
    <glyph glyph-name="tilde" unicode="&#x2dc;" horiz-adv-x="698" 
d="M334 1272q-68 35 -94 35q-38 0 -76 -35l-51 53q76 70 155 70q50 0 117 -31q5 -2 22.5 -10.5t25.5 -12t21.5 -7t24.5 -3.5q35 0 60 25l47 -51q-71 -68 -140 -68q-47 0 -112 35z" />
    <glyph glyph-name="hungarumlaut" unicode="&#x2dd;" horiz-adv-x="632" 
d="M301 1479l-104 -269h-111l80 269h135zM334 1210l80 269h135l-105 -269h-110z" />
    <glyph glyph-name="uni03BC" unicode="&#x3bc;" horiz-adv-x="1122" 
d="M309 1004v-617q0 -52 11 -97t35 -85.5t70 -64t110 -23.5q75 0 151 34.5t127 92.5v760h170v-1004h-170v106q-56 -59 -131 -91.5t-156 -32.5q-78 0 -133.5 30t-83.5 74v-448h-170v1366h170z" />
    <glyph glyph-name="pi" unicode="&#x3c0;" horiz-adv-x="1146" 
d="M295 184v760h-197v150h951v-150h-185v-446q0 -99 30 -148t118 -53v-145q-168 0 -242 78t-74 239v475h-225v-760h-176z" />
    <glyph glyph-name="Wgrave" unicode="&#x1e80;" horiz-adv-x="1990" 
d="M676 0h-189l-428 1317h193l330 -1081l323 1030h182l322 -1030l330 1081h192l-428 -1317h-186l-322 1024zM827 1763h144l90 -268h-111z" />
    <glyph glyph-name="wgrave" unicode="&#x1e81;" horiz-adv-x="1642" 
d="M588 0h-176l-357 1004h178l273 -816l231 816h166l234 -816l270 816h178l-354 -1004h-176l-234 786zM643 1479h143l91 -269h-111z" />
    <glyph glyph-name="Wacute" unicode="&#x1e82;" horiz-adv-x="1990" 
d="M676 0h-189l-428 1317h193l330 -1081l323 1030h182l322 -1030l330 1081h192l-428 -1317h-186l-322 1024zM930 1495l90 268h143l-121 -268h-112z" />
    <glyph glyph-name="wacute" unicode="&#x1e83;" horiz-adv-x="1642" 
d="M588 0h-176l-357 1004h178l273 -816l231 816h166l234 -816l270 816h178l-354 -1004h-176l-234 786zM762 1210l90 269h143l-123 -269h-110z" />
    <glyph glyph-name="Wdieresis" unicode="&#x1e84;" horiz-adv-x="1990" 
d="M487 0l-428 1317h193l330 -1081l323 1030h182l322 -1030l330 1081h192l-428 -1317h-186l-322 1024l-319 -1024h-189zM1118 1507q-36 0 -61 24t-25 58t25 58t61 24q35 0 60.5 -24t25.5 -58t-25.5 -58t-60.5 -24zM874 1507q-35 0 -60.5 24t-25.5 58t25.5 58t60.5 24t61 -24
t26 -58t-26 -58t-61 -24z" />
    <glyph glyph-name="wdieresis" unicode="&#x1e85;" horiz-adv-x="1642" 
d="M55 1004h178l273 -816l231 816h166l234 -816l270 816h178l-354 -1004h-176l-234 786l-233 -786h-176zM961 1243q-36 0 -61.5 23.5t-25.5 58.5q0 34 26 58t61 24t60.5 -24t25.5 -58q0 -35 -25 -58.5t-61 -23.5zM682 1243q-37 0 -61.5 23.5t-24.5 58.5q0 34 25 58t61 24
q35 0 59.5 -24t24.5 -58q0 -35 -24.5 -58.5t-59.5 -23.5z" />
    <glyph glyph-name="endash" unicode="&#x2013;" horiz-adv-x="790" 
d="M94 606v137h600v-137h-600z" />
    <glyph glyph-name="emdash" unicode="&#x2014;" horiz-adv-x="1118" 
d="M94 606v137h930v-137h-930z" />
    <glyph glyph-name="quoteleft" unicode="&#x2018;" horiz-adv-x="337" 
d="M113 1403h112v-275h-112v275z" />
    <glyph glyph-name="quoteright" unicode="&#x2019;" horiz-adv-x="337" 
d="M225 1128h-112v275h112v-275z" />
    <glyph glyph-name="quotesinglbase" unicode="&#x201a;" horiz-adv-x="337" 
d="M225 -150h-112v275h112v-275z" />
    <glyph glyph-name="quotedblleft" unicode="&#x201c;" horiz-adv-x="538" 
d="M225 1403v-275h-112v275h112zM315 1403h111v-275h-111v275z" />
    <glyph glyph-name="quotedblright" unicode="&#x201d;" horiz-adv-x="538" 
d="M225 1403v-275h-112v275h112zM315 1403h111v-275h-111v275z" />
    <glyph glyph-name="quotedblbase" unicode="&#x201e;" horiz-adv-x="538" 
d="M225 125v-275h-112v275h112zM315 125h111v-275h-111v275z" />
    <glyph glyph-name="dagger" unicode="&#x2020;" horiz-adv-x="790" 
d="M311 49v817h-205v138h205v319h168v-319h207v-138h-207v-817h-168z" />
    <glyph glyph-name="daggerdbl" unicode="&#x2021;" horiz-adv-x="823" 
d="M121 866v138h207v319h168v-319h204v-138h-204v-331h204v-138h-204v-348h-168v348h-207v138h207v331h-207z" />
    <glyph glyph-name="bullet" unicode="&#x2022;" horiz-adv-x="471" 
d="M80 727q0 63 45.5 107.5t110.5 44.5q64 0 109.5 -44.5t45.5 -107.5q0 -62 -45.5 -105.5t-109.5 -43.5t-110 43.5t-46 105.5z" />
    <glyph glyph-name="ellipsis" unicode="&#x2026;" horiz-adv-x="1159" 
d="M580 -16q-44 0 -76.5 30.5t-32.5 73.5q0 42 32 72t77 30q44 0 76 -29.5t32 -72.5t-32 -73.5t-76 -30.5zM858 88q0 43 31.5 72.5t77.5 29.5q44 0 75 -29.5t31 -72.5t-31 -73.5t-75 -30.5q-46 0 -77.5 30.5t-31.5 73.5zM301 88q0 -43 -32 -73.5t-76 -30.5t-75.5 30.5
t-31.5 73.5t31.5 72.5t75.5 29.5t76 -29.5t32 -72.5z" />
    <glyph glyph-name="perthousand" unicode="&#x2030;" horiz-adv-x="2195" 
d="M1159 -31q-127 0 -207 87t-80 237q0 149 80 236t207 87q126 0 205.5 -87t79.5 -236t-79.5 -236.5t-205.5 -87.5zM1567 293q0 150 79.5 236.5t206.5 86.5q126 0 205.5 -87t79.5 -236t-79.5 -236.5t-205.5 -87.5q-127 0 -206.5 87t-79.5 237zM55 1042q0 150 80 237t207 87
q126 0 205.5 -87.5t79.5 -236.5q0 -148 -80 -235.5t-205 -87.5q-127 0 -207 87.5t-80 235.5zM508 0h-164l645 1305h168zM1853 524q-71 0 -115 -60t-44 -171q0 -112 44.5 -172t114.5 -60t114 60t44 172t-44 171.5t-114 59.5zM1159 524q-71 0 -115.5 -60t-44.5 -171
t44.5 -171.5t115.5 -60.5q70 0 114 60t44 172t-44 171.5t-114 59.5zM182 1042q0 -110 45 -170.5t115 -60.5t114 60.5t44 170.5q0 112 -44.5 173t-113.5 59q-71 0 -115.5 -60.5t-44.5 -171.5z" />
    <glyph glyph-name="guilsinglleft" unicode="&#x2039;" horiz-adv-x="552" 
d="M397 463h-69l-174 213l174 213h69l-121 -213z" />
    <glyph glyph-name="guilsinglright" unicode="&#x203a;" horiz-adv-x="552" 
d="M225 889l172 -213l-172 -213h-71l122 213l-122 213h71z" />
    <glyph glyph-name="fraction" unicode="&#x2044;" horiz-adv-x="1019" 
d="M47 -16l760 1230h166l-760 -1230h-166z" />
    <glyph glyph-name="franc" unicode="&#x20a3;" horiz-adv-x="1116" 
d="M51 371h148v946h868v-148h-690v-428h620v-147h-620v-223h352v-119h-352v-252h-178v252h-148v119z" />
    <glyph glyph-name="lira" unicode="&#x20a4;" horiz-adv-x="1116" 
d="M59 139q43 0 76 37q108 34 117 285h-168v112h174q2 33 2 99h-176v110h178q4 96 17 172.5t43.5 151t77.5 124t122.5 79.5t175.5 30q249 0 359 -196l-121 -72q-82 131 -227 131q-60 0 -106 -16.5t-75 -49t-48 -69t-28.5 -89t-13 -95.5t-4.5 -101h352v-110h-354
q0 -12 -1 -47.5t-1 -51.5h356v-112h-364q-17 -255 -92 -324h602v-137h-873v139z" />
    <glyph glyph-name="peseta" unicode="&#x20a7;" horiz-adv-x="2762" 
d="M1106 903q0 -102 -33.5 -182.5t-90.5 -130t-129 -75.5t-153 -26h-387v-489h-176v1317h563q81 0 153 -26t129 -75.5t90.5 -130t33.5 -182.5zM1907 737q0 125 98.5 204t255.5 79q112 0 204 -41t150 -113l-80 -100q-102 121 -260 121q-94 0 -150.5 -42t-56.5 -108
q0 -39 30 -71t78.5 -54.5t107 -44.5t116.5 -48.5t106.5 -58.5t78.5 -82t30 -112q0 -127 -102.5 -204.5t-267.5 -77.5q-128 0 -232 42.5t-162 108.5l76 107q47 -52 128 -89.5t171 -37.5q105 0 164 41t59 104q0 41 -30 74t-77.5 56t-105.5 45t-116 48t-105.5 58t-77.5 82
t-30 114zM680 637q114 0 180 72.5t66 193.5q0 122 -65 194t-181 72h-367v-532h367zM1505 1260v-256h217v-138h-217v-540q0 -109 25.5 -156t103.5 -47q72 0 125 37l47 -117q-93 -59 -215 -59q-66 0 -114 18.5t-74.5 46.5t-42 72.5t-19.5 84t-4 93.5v567h-131v138h131v239z
" />
    <glyph glyph-name="Euro" unicode="&#x20ac;" horiz-adv-x="1142" 
d="M14 487v109h107q-3 52 0 104h-107v107h117q26 150 99.5 266.5t194.5 185.5t273 70q267 0 430 -207l-94 -108q-130 172 -327 172q-156 0 -258 -104.5t-132 -274.5h400v-107h-412q-2 -35 2 -104h410v-109h-387q34 -153 132 -248.5t245 -95.5q200 0 327 172l94 -108
q-162 -207 -423 -207q-221 0 -369 133t-195 354h-127z" />
    <glyph glyph-name="uni2113" unicode="&#x2113;" horiz-adv-x="890" 
d="M96 567q81 3 168 43v387q0 65 3 113.5t11.5 105t27 96t46 73.5t71.5 51.5t101 17.5q132 0 201.5 -89t69.5 -228q0 -168 -104.5 -317.5t-258.5 -248.5v-239q0 -43 5 -75t19 -63t43.5 -47.5t73.5 -17.5q68 0 123 25l43 -117q-110 -45 -209 -45q-78 0 -132.5 24.5t-82.5 70
t-39.5 96.5t-11.5 116v193q-92 -32 -168 -35v110zM432 705q110 81 182 193t72 228q0 39 -5.5 72t-19 65.5t-40.5 51t-66 18.5q-27 0 -47 -8.5t-33.5 -28t-22 -44.5t-13 -64t-6 -79.5t-1.5 -98.5v-305z" />
    <glyph glyph-name="trademark" unicode="&#x2122;" horiz-adv-x="2082" 
d="M973 664v753h178l303 -583l303 583h180v-753h-176l-2 477l-237 -477h-133l-238 477l-2 -477h-176zM401 1270h-270v147h719v-147h-270v-606h-179v606z" />
    <glyph glyph-name="Omega" unicode="&#x2126;" horiz-adv-x="1183" 
d="M137 543q0 85 28.5 163t83 141.5t143.5 101.5t200 38t200 -38t143.5 -101.5t83 -141.5t28.5 -163q0 -73 -19.5 -138.5t-43 -105.5t-44 -90.5t-22.5 -95.5h225v-113h-361v96q0 62 20 124.5t44 105t44 98t19 106.5q0 122 -84.5 208.5t-232.5 86.5t-233 -86.5t-87 -208.5
q0 -50 20 -107t43.5 -100.5t43.5 -105t20 -121.5v-96h-358v113h225q-2 45 -22.5 95.5t-44 90.5t-43 105.5t-19.5 138.5z" />
    <glyph glyph-name="estimated" unicode="&#x212e;" horiz-adv-x="1103" 
d="M991 469l-692 -2v-37q4 -164 84.5 -263t202.5 -97q101 1 160.5 49t84.5 121h127q-33 -123 -136.5 -189.5t-241.5 -66.5q-93 0 -177.5 33t-151.5 94.5t-107 159.5t-40 218q0 226 129.5 368t341.5 142q198 0 310.5 -132t107.5 -332zM578 907q-70 0 -124.5 -29.5t-86.5 -80
t-48.5 -110.5t-17.5 -126h518q0 346 -241 346z" />
    <glyph glyph-name="partialdiff" unicode="&#x2202;" horiz-adv-x="997" 
d="M305 827l-108 66q54 67 133.5 101t169.5 34q76 -2 136 -30t98 -76t64 -108t36 -131t10 -140.5t-10 -139.5q-13 -94 -41 -168t-74 -131.5t-115.5 -88.5t-157.5 -31q-146 0 -227 92.5t-78 232.5q0 155 94 257t252 106q140 0 215 -99q2 46 -1.5 89.5t-17.5 90t-37.5 80.5
t-64.5 56.5t-96 23.5q-110 0 -180 -86zM487 567q-102 -3 -159 -78.5t-54 -177.5q0 -85 45.5 -145t131.5 -60t143 51t76 138q27 109 -23 190.5t-151 81.5h-9z" />
    <glyph glyph-name="Delta" unicode="&#x2206;" horiz-adv-x="1030" 
d="M430 1004h170l365 -1004h-899zM516 852l-242 -739h482z" />
    <glyph glyph-name="product" unicode="&#x220f;" horiz-adv-x="1269" 
d="M313 1253v-1534h-170v1672h983v-1672h-168v1534h-645z" />
    <glyph glyph-name="summation" unicode="&#x2211;" horiz-adv-x="1017" 
d="M127 -283v125l373 738l-373 680v133h762v-150h-617l387 -663l-387 -713h617v-148z" />
    <glyph glyph-name="minus" unicode="&#x2212;" horiz-adv-x="1024" 
d="M213 586v137h598v-137h-598z" />
    <glyph glyph-name="uni2215" unicode="&#x2215;" horiz-adv-x="1019" 
d="M47 -16l760 1230h166l-760 -1230h-166z" />
    <glyph glyph-name="uni2219" unicode="&#x2219;" horiz-adv-x="428" 
d="M98 713q0 46 34 78t81 32q48 0 82.5 -32.5t34.5 -77.5q0 -46 -35 -78.5t-82 -32.5t-81 32.5t-34 78.5z" />
    <glyph glyph-name="radical" unicode="&#x221a;" horiz-adv-x="1187" 
d="M401 10l-157 393h-152v113h279l133 -336l440 1147h189l-519 -1317h-213z" />
    <glyph glyph-name="infinity" unicode="&#x221e;" horiz-adv-x="774" 
d="M246 776q84 0 143 -76q56 76 143 76q78 0 128 -49.5t51 -132.5q0 -82 -50.5 -132t-128.5 -50q-87 0 -137 77q-56 -77 -149 -77q-79 0 -129.5 50.5t-50.5 131.5q0 82 50.5 132t129.5 50zM246 674q-30 0 -56 -18t-26 -62q0 -43 27 -60.5t55 -17.5q58 0 92 78q-36 80 -92 80
zM532 674q-30 0 -53 -21.5t-35 -58.5q29 -78 88 -78q31 0 54.5 20t23.5 58t-23.5 59t-54.5 21z" />
    <glyph glyph-name="integral" unicode="&#x222b;" horiz-adv-x="716" 
d="M119 -109q68 0 104 39q25 24 34 57.5t9 92.5v1046q0 325 281 330q59 0 102.5 -10t102.5 -35l-41 -115q-60 25 -127 25q-84 0 -116 -49t-32 -139v-1047q0 -153 -66.5 -241.5t-213.5 -88.5q-59 0 -102.5 10t-102.5 35l41 113q62 -23 127 -23z" />
    <glyph glyph-name="approxequal" unicode="&#x2248;" horiz-adv-x="1024" 
d="M403 788q-23 0 -39 -16t-16 -45h-106q0 76 44.5 118t108.5 42q47 1 91.5 -25t80 -52t58.5 -26q20 0 35.5 13.5t15.5 40.5h106q0 -71 -41 -115.5t-102 -44.5q-44 0 -89 27.5t-83 55t-64 27.5zM348 473h-106q0 75 44.5 117.5t108.5 42.5q36 0 72.5 -16.5t60.5 -36t51 -36
t46 -16.5q20 0 35.5 14.5t15.5 41.5h106q0 -71 -41 -115.5t-102 -44.5q-35 0 -71.5 17t-61.5 37.5t-54 37.5t-51 16q-23 0 -38 -15.5t-15 -43.5z" />
    <glyph glyph-name="notequal" unicode="&#x2260;" horiz-adv-x="1024" 
d="M352 412h-219v137h268l76 207h-342v137h393l109 301h162l-111 -301h201v-137h-250l-76 -207h326v-137h-375l-127 -349h-162z" />
    <glyph glyph-name="lessequal" unicode="&#x2264;" horiz-adv-x="1103" 
d="M168 518v172l805 365v-164l-666 -287l666 -282v-164zM999 -43v-135l-858 -2v137h858z" />
    <glyph glyph-name="greaterequal" unicode="&#x2265;" horiz-adv-x="1103" 
d="M813 604l-668 287v164l807 -365v-172l-807 -360v164zM979 -43v-135l-858 -2v137h858z" />
    <glyph glyph-name="lozenge" unicode="&#x25ca;" horiz-adv-x="1103" 
d="M637 -37h-170l-342 664l342 714h170l342 -714zM287 627l264 -523l266 523l-266 573z" />
    <glyph glyph-name="longs_t" unicode="&#xfb05;" horiz-adv-x="1269" 
d="M205 0v979q0 185 91.5 273.5t276.5 88.5q175 0 272 -82t97 -255h205v-138h-205v-540q0 -109 25.5 -156t103.5 -47q69 0 125 37l47 -117q-93 -59 -217 -59q-66 0 -113.5 18.5t-73.5 46.5t-41.5 72.5t-19.5 84t-4 93.5v567h-201v138h201q-3 98 -56 148t-145 50
q-93 0 -143 -53q-57 -54 -57 -164v-985h-168z" />
    <glyph glyph-name="acute.case" horiz-adv-x="403" 
d="M86 1495l88 268h143l-120 -268h-111z" />
    <glyph glyph-name="breve.case" horiz-adv-x="622" 
d="M539 1683q-9 -87 -72 -140.5t-156 -53.5t-155.5 53.5t-69.5 140.5h125q5 -44 31 -69t69 -25q44 0 70 25.5t31 68.5h127z" />
    <glyph glyph-name="caron.case" horiz-adv-x="598" 
d="M86 1733l213 -127l213 127v-72l-168 -172h-90l-168 172v72z" />
    <glyph glyph-name="caron.salt" horiz-adv-x="403" 
d="M86 1206l88 269h143l-120 -269h-111z" />
    <glyph glyph-name="circumflex.case" horiz-adv-x="598" 
d="M299 1628l-213 -139v72l168 172h90l168 -172v-72z" />
    <glyph glyph-name="commaaccent.salt" horiz-adv-x="354" 
d="M86 -172l47 297h135l-65 -297h-117z" />
    <glyph glyph-name="dieresis.case" horiz-adv-x="600" 
d="M336 1589q0 34 25.5 58t60.5 24t60.5 -24t25.5 -58t-25.5 -58t-60.5 -24t-60.5 24t-25.5 58zM264 1589q0 -34 -25.5 -58t-60.5 -24t-60.5 24t-25.5 58t25.5 58t60.5 24t60.5 -24t25.5 -58z" />
    <glyph glyph-name="dotaccent.case" horiz-adv-x="428" 
d="M104 1593q0 43 32.5 74t76.5 31q46 0 78.5 -31t32.5 -74t-32.5 -73.5t-78.5 -30.5q-44 0 -76.5 30.5t-32.5 73.5z" />
    <glyph glyph-name="grave.case" horiz-adv-x="403" 
d="M86 1763h143l88 -268h-110z" />
    <glyph glyph-name="hungarumlaut.case" horiz-adv-x="634" 
d="M444 1495h-110l80 268h135zM301 1763l-104 -268h-111l80 268h135z" />
    <glyph glyph-name="macron.case" horiz-adv-x="624" 
d="M86 1626h455v-115h-455v115z" />
    <glyph glyph-name="ring.case" horiz-adv-x="497" 
d="M250 1780q59 0 101 -43t42 -103t-42 -102.5t-101 -42.5q-60 0 -103 42.5t-43 102.5t43 103t103 43zM250 1704q-27 0 -46.5 -21t-19.5 -49q0 -29 19 -49t47 -20q26 0 44.5 20t18.5 49q0 28 -18.5 49t-44.5 21z" />
    <glyph glyph-name="tilde.case" horiz-adv-x="681" 
d="M338 1530q-77 41 -109 41q-35 0 -73 -35l-52 53q77 68 152 68q51 0 115 -31q68 -33 98 -33q29 0 63 27l46 -51q-75 -70 -142 -70q-38 0 -98 31z" />
    <glyph glyph-name="commaaccent" horiz-adv-x="559" 
d="M168 -297l68 281h135l-88 -281h-115z" />
    <glyph glyph-name="uni000D" horiz-adv-x="692" 
 />
    </font>
</defs>
</svg>
